<?xml version="1.0" standalone="no"?>
<!DOCTYPE svg PUBLIC "-//W3C//DTD SVG 1.1//EN" "http://www.w3.org/Graphics/SVG/1.1/DTD/svg11.dtd" >
<svg>
<metadata>
Created by FontForge 20120731 at Thu Jul 16 13:18:36 2015
 By ,,,
Copyright (c) Mark Simonson, 2005. All rights reserved.
</metadata>
<defs>
<font id="ProximaNova-RegularIt" horiz-adv-x="388" >
  <font-face 
    font-family="ProximaNova-RegularIt"
    font-weight="400"
    font-style="italic"
    font-stretch="normal"
    units-per-em="1000"
    panose-1="2 0 5 6 3 0 0 2 0 4"
    ascent="790"
    descent="-210"
    x-height="483"
    cap-height="667"
    bbox="-225 -266 1144 889"
    underline-thickness="20"
    underline-position="-113"
    unicode-range="U+0020-FB04"
  />
<missing-glyph horiz-adv-x="507" 
d="M449 -90h-351v842h351v-842zM417 -60v782h-288v-782h288z" />
    <glyph glyph-name="f_f_j" unicode="ffj" horiz-adv-x="792" 
d="M117 0h-75l92 417h-80l15 66h80l8 37q36 157 159 157q66 0 107 -41l-40 -46q-22 25 -61 25q-69 0 -90 -95l-8 -37h98l-15 -66h-98zM401 0h-75l92 417h-80l15 66h80l8 37q35 157 159 157q49 0 86 -23l-29 -54q-19 15 -51 15q-69 0 -90 -95l-8 -37h98l-15 -66h-98z
M499 -196q-79 0 -115 42l37 53q26 -33 68 -33q70 0 89 87l117 530h75l-117 -530q-17 -74 -54 -111.5t-100 -37.5zM753 552q-20 0 -33 13t-13 31q0 25 18 41t39 16q19 0 32.5 -13t13.5 -31q0 -25 -18 -41t-39 -16z" />
    <glyph glyph-name="f_j" unicode="fj" horiz-adv-x="509" 
d="M117 0h-75l92 417h-80l15 66h80l8 37q35 157 159 157q49 0 86 -23l-29 -54q-19 15 -51 15q-69 0 -90 -95l-8 -37h98l-15 -66h-98zM216 -196q-79 0 -115 42l37 53q26 -33 68 -33q70 0 89 87l117 530h75l-117 -530q-17 -74 -54 -111.5t-100 -37.5zM470 552q-20 0 -33 13
t-13 31q0 25 18 41t39 16q19 0 32.5 -13t13.5 -31q0 -25 -18 -41t-39 -16z" />
    <glyph glyph-name="f_f" unicode="ff" horiz-adv-x="567" 
d="M117 0h-75l92 417h-80l15 66h80l8 37q36 157 159 157q66 0 107 -41l-40 -46q-22 25 -61 25q-69 0 -90 -95l-8 -37h98l-15 -66h-98zM401 0h-75l92 417h-80l15 66h80l8 37q36 157 159 157q66 0 107 -41l-40 -46q-22 25 -61 25q-69 0 -90 -95l-8 -37h98l-15 -66h-98z" />
    <glyph glyph-name="fi" unicode="fi" horiz-adv-x="509" 
d="M117 0h-75l92 417h-80l15 66h80l8 37q35 157 159 157q49 0 86 -23l-29 -54q-19 15 -51 15q-69 0 -90 -95l-8 -37h98l-15 -66h-98zM470 552q-20 0 -33 13t-13 31q0 25 18 41t39 16q19 0 32.5 -13t13.5 -31q0 -25 -18 -41t-39 -16zM380 0h-75l107 483h75z" />
    <glyph glyph-name="fl" unicode="fl" horiz-adv-x="509" 
d="M117 0h-75l92 417h-80l15 66h80l8 37q35 157 159 157q49 0 86 -23l-29 -54q-19 15 -51 15q-69 0 -90 -95l-8 -37h98l-15 -66h-98zM380 0h-75l147 667h75z" />
    <glyph glyph-name="f_f_i" unicode="ffi" horiz-adv-x="792" 
d="M117 0h-75l92 417h-80l15 66h80l8 37q36 157 159 157q66 0 107 -41l-40 -46q-22 25 -61 25q-69 0 -90 -95l-8 -37h98l-15 -66h-98zM401 0h-75l92 417h-80l15 66h80l8 37q35 157 159 157q49 0 86 -23l-29 -54q-19 15 -51 15q-69 0 -90 -95l-8 -37h98l-15 -66h-98zM753 552
q-20 0 -33 13t-13 31q0 25 18 41t39 16q19 0 32.5 -13t13.5 -31q0 -25 -18 -41t-39 -16zM663 0h-75l107 483h75z" />
    <glyph glyph-name="f_f_l" unicode="ffl" horiz-adv-x="792" 
d="M117 0h-75l92 417h-80l15 66h80l8 37q36 157 159 157q66 0 107 -41l-40 -46q-22 25 -61 25q-69 0 -90 -95l-8 -37h98l-15 -66h-98zM401 0h-75l92 417h-80l15 66h80l8 37q35 157 159 157q49 0 86 -23l-29 -54q-19 15 -51 15q-69 0 -90 -95l-8 -37h98l-15 -66h-98zM663 0
h-75l147 667h75z" />
    <glyph glyph-name="f_b" unicode="fb" horiz-adv-x="859" 
d="M117 0h-75l92 417h-80l15 66h80l8 37q35 157 159 157q49 0 86 -23l-29 -54q-19 15 -51 15q-69 0 -90 -95l-8 -37h98l-15 -66h-98zM565 -12q-55 0 -99.5 23.5t-68.5 64.5l-17 -76h-75l147 667h75l-55 -253q65 81 159 81q85 0 136 -53t51 -146q0 -124 -70.5 -216
t-182.5 -92zM555 55q80 0 132 68t52 159q0 67 -37 106.5t-98 39.5q-43 0 -82.5 -23.5t-65.5 -58.5l-47 -213q19 -34 57.5 -56t88.5 -22z" />
    <glyph glyph-name="f_h" unicode="fh" horiz-adv-x="836" 
d="M117 0h-75l92 417h-80l15 66h80l8 37q35 157 159 157q49 0 86 -23l-29 -54q-19 15 -51 15q-69 0 -90 -95l-8 -37h98l-15 -66h-98zM707 0h-75l70 318q5 20 5 33q0 77 -100 77q-75 0 -149 -76l-77 -352h-75l147 667h74l-56 -254q84 82 171 82q65 0 104.5 -31t39.5 -88
q0 -21 -6 -41z" />
    <glyph glyph-name="f_k" unicode="fk" horiz-adv-x="798" 
d="M117 0h-75l92 417h-80l15 66h80l8 37q35 157 159 157q49 0 86 -23l-29 -54q-19 15 -51 15q-69 0 -90 -95l-8 -37h98l-15 -66h-98zM730 0h-90l-128 220l-101 -82l-31 -138h-75l147 667h75l-96 -436l306 252h99l-263 -219z" />
    <glyph glyph-name=".notdef" horiz-adv-x="507" 
d="M449 -90h-351v842h351v-842zM417 -60v782h-288v-782h288z" />
    <glyph glyph-name=".null" horiz-adv-x="0" 
 />
    <glyph glyph-name="nonmarkingreturn" horiz-adv-x="333" 
 />
    <glyph glyph-name="space" unicode=" " horiz-adv-x="259" 
 />
    <glyph glyph-name="exclam" unicode="!" horiz-adv-x="230" 
d="M133 187h-62l90 480h94zM66 -10q-21 0 -35.5 14.5t-14.5 36.5q0 24 17.5 41.5t42.5 17.5q21 0 35.5 -15t14.5 -36q0 -25 -17.5 -42t-42.5 -17z" />
    <glyph glyph-name="quotedbl" unicode="&#x22;" horiz-adv-x="344" 
d="M153 412h-37q19 195 20 210q2 24 17 39.5t37 15.5q17 0 28.5 -12t11.5 -30q0 -4 -1 -8t-2.5 -8.5t-1.5 -6.5zM300 412h-37q19 195 20 210q2 24 17 39.5t37 15.5q17 0 28.5 -12t11.5 -30q0 -8 -6 -23z" />
    <glyph glyph-name="numbersign" unicode="#" horiz-adv-x="591" 
d="M246 0h-61l101 181h-111l-100 -181h-62l101 181h-106l28 53h108l110 199h-108l27 52h111l99 182h62l-100 -182h110l100 182h61l-101 -182h107l-26 -52h-109l-112 -199h111l-28 -53h-112zM314 234l111 199h-110l-110 -199h109z" />
    <glyph glyph-name="dollar" unicode="$" horiz-adv-x="593" 
d="M291 -12q-3 0 -8.5 0.5t-8.5 0.5l-19 -89h-61l21 95q-135 25 -194 113l57 59q53 -75 153 -98l54 241q-39 16 -63.5 29t-52.5 33.5t-41.5 48t-13.5 62.5q0 79 67.5 137t169.5 58q2 0 7.5 -0.5t8.5 -0.5l20 91h61l-22 -98q111 -24 165 -98l-56 -58q-44 59 -126 81l-48 -218
q39 -17 64 -30t53 -34.5t42 -50t14 -63.5q0 -85 -65.5 -148t-177.5 -63zM445 186q0 34 -26.5 56.5t-77.5 44.5l-50 -225h7q72 0 109.5 38t37.5 86zM203 495q0 -31 26 -52.5t76 -42.5l45 204h-9q-58 0 -98 -32.5t-40 -76.5z" />
    <glyph glyph-name="percent" unicode="%" horiz-adv-x="732" 
d="M129 0h-55l573 667h56zM505 -12q-63 0 -106.5 37.5t-43.5 97.5q0 85 53 139.5t125 54.5q63 0 106.5 -37.5t43.5 -97.5q0 -85 -53 -139.5t-125 -54.5zM506 39q48 0 82.5 39.5t34.5 98.5q0 38 -26 63.5t-66 25.5q-47 0 -81.5 -39.5t-34.5 -98.5q0 -38 25.5 -63.5
t65.5 -25.5zM236 348q-62 0 -105.5 37.5t-43.5 97.5q0 85 53 139.5t125 54.5q63 0 106 -37.5t43 -97.5q0 -85 -52.5 -139.5t-125.5 -54.5zM238 399q48 0 82.5 39.5t34.5 98.5q0 38 -26 63.5t-66 25.5q-47 0 -81.5 -39.5t-34.5 -98.5q0 -38 25.5 -63.5t65.5 -25.5z" />
    <glyph glyph-name="ampersand" unicode="&#x26;" horiz-adv-x="642" 
d="M538 0h-95q-25 31 -43 56q-90 -68 -183 -68q-88 0 -144.5 43.5t-56.5 123.5q0 46 15.5 83t45.5 63.5t61 43.5t74 35q-23 66 -23 116q0 74 55 127.5t130 53.5q64 0 106 -31.5t42 -87.5q0 -34 -13.5 -62.5t-30 -46.5t-51 -37t-56 -28t-64.5 -26q23 -50 51 -95
q34 -59 63 -103q66 72 107 147l57 -35q-68 -103 -128 -165q44 -60 81 -107zM226 50q65 0 138 58q-49 71 -71 109q-29 49 -59 111q-64 -29 -99 -66.5t-35 -96.5q0 -55 36.5 -85t89.5 -30zM267 496q0 -37 18 -88q40 15 64.5 26t50.5 28t38 39t12 49q0 32 -21 50.5t-53 18.5
q-41 0 -75 -33.5t-34 -89.5z" />
    <glyph glyph-name="quotesingle" unicode="'" horiz-adv-x="199" 
d="M153 412h-37q19 195 20 210q2 24 17 39.5t37 15.5q17 0 28.5 -12t11.5 -30q0 -4 -1 -8t-2.5 -8.5t-1.5 -6.5z" />
    <glyph glyph-name="parenleft" unicode="(" horiz-adv-x="248" 
d="M141 -169l-53 -30q-63 124 -63 290q0 156 66.5 309t190.5 285l39 -38q-217 -283 -217 -584q0 -105 37 -232z" />
    <glyph glyph-name="parenright" unicode=")" horiz-adv-x="248" 
d="M106 655l53 30q63 -124 63 -290q0 -156 -66.5 -309t-190.5 -285l-39 38q217 283 217 584q0 105 -37 232z" />
    <glyph glyph-name="asterisk" unicode="*" horiz-adv-x="340" 
d="M224 389h-46l32 117l-110 -50l-14 40l114 41l-90 62l31 36l82 -71l19 113h47l-32 -117l110 51l13 -41l-112 -41l89 -62l-31 -36l-83 71z" />
    <glyph glyph-name="plus" unicode="+" horiz-adv-x="499" 
d="M484 311h-191l-48 -213h-57l47 213h-191l11 52h192l45 207h58l-46 -207h192z" />
    <glyph glyph-name="comma" unicode="," horiz-adv-x="230" 
d="M128 42q0 -46 -33.5 -92t-81.5 -71l-31 33q67 34 84 84h-8q-18 0 -30.5 12.5t-12.5 32.5q0 24 18 41.5t42 17.5q23 0 38 -15.5t15 -42.5z" />
    <glyph glyph-name="hyphen" unicode="-" horiz-adv-x="300" 
d="M262 209h-240l14 66h240z" />
    <glyph glyph-name="period" unicode="." horiz-adv-x="231" 
d="M66 -10q-21 0 -35.5 14.5t-14.5 36.5q0 24 17.5 41.5t42.5 17.5q21 0 35.5 -15t14.5 -36q0 -25 -17.5 -42t-42.5 -17z" />
    <glyph glyph-name="slash" unicode="/" horiz-adv-x="296" 
d="M2 -20h-62l393 707h63z" />
    <glyph glyph-name="zero" unicode="0" horiz-adv-x="612" 
d="M278 -12q-104 0 -161.5 69.5t-57.5 190.5q0 103 37 200t111 163t167 66q104 0 160.5 -69t56.5 -190q0 -103 -36.5 -200t-110 -163.5t-166.5 -66.5zM285 62q66 0 118 59t77.5 140t25.5 162q0 83 -34 131.5t-107 48.5q-65 0 -117.5 -58t-78.5 -139.5t-26 -162.5
q0 -82 35 -131.5t107 -49.5z" />
    <glyph glyph-name="one" unicode="1" horiz-adv-x="339" 
d="M207 0h-83l123 558l-132 -114l-38 51l204 172h73z" />
    <glyph glyph-name="two" unicode="2" horiz-adv-x="588" 
d="M458 0h-458l18 82q94 57 152.5 95t124 85.5t101 83.5t59.5 75.5t24 76.5q0 49 -40 77t-104 28q-101 0 -171 -65l-39 59q38 36 95.5 58t119.5 22q95 0 161 -45t66 -130q0 -54 -32 -109.5t-95.5 -111t-130.5 -102.5t-162 -105h327z" />
    <glyph glyph-name="three" unicode="3" horiz-adv-x="557" 
d="M252 -12q-86 0 -157 38.5t-98 100.5l60 47q25 -52 78.5 -82t115.5 -30q73 0 116 39.5t43 100.5q0 47 -39 75t-109 28q-53 0 -64 -1l18 76q10 -1 90 -1q68 0 114 30t46 88q0 46 -41.5 76t-110.5 30q-96 0 -169 -65l-35 56q85 83 210 83q103 0 167 -44.5t64 -123.5
q0 -71 -55.5 -118t-125.5 -53q53 -12 87.5 -49t34.5 -94q0 -87 -68 -147t-172 -60z" />
    <glyph glyph-name="four" unicode="4" horiz-adv-x="558" 
d="M378 0h-83l37 169h-317l17 76l375 422h118l-94 -425h94l-16 -73h-94zM348 242l77 348l-311 -348h234z" />
    <glyph glyph-name="five" unicode="5" horiz-adv-x="590" 
d="M279 -12q-174 0 -244 133l63 50q52 -109 185 -109q70 0 118 46.5t48 113.5q0 60 -41.5 93.5t-108.5 33.5q-75 0 -139 -48l-54 27l74 339h408l-16 -74h-325l-49 -220q56 45 140 45t141 -49.5t57 -137.5q0 -101 -72.5 -172t-184.5 -71z" />
    <glyph glyph-name="six" unicode="6" horiz-adv-x="591" 
d="M283 -12q-109 0 -168.5 64.5t-59.5 181.5q0 73 20.5 148.5t58.5 142.5t103.5 109.5t145.5 42.5q138 0 201 -100l-56 -56q-43 82 -150 82q-61 0 -109.5 -39.5t-74.5 -92t-43 -118.5q-5 -15 -5 -21q30 33 83.5 59.5t108.5 26.5q89 0 145.5 -47.5t56.5 -128.5
q0 -103 -75 -178.5t-182 -75.5zM284 62q72 0 121 50.5t49 118.5q0 54 -41 86t-108 32q-93 0 -168 -83q-2 -16 -2 -47q0 -71 39.5 -114t109.5 -43z" />
    <glyph glyph-name="seven" unicode="7" horiz-adv-x="515" 
d="M161 0h-96l398 593h-355l16 74h455l-13 -57z" />
    <glyph glyph-name="eight" unicode="8" horiz-adv-x="582" 
d="M272 -12q-105 0 -173.5 44.5t-68.5 125.5q0 73 54.5 124.5t147.5 70.5q-49 20 -82.5 56t-33.5 85q0 88 72 135.5t165 47.5t160.5 -44t67.5 -120q0 -71 -52 -117.5t-137 -59.5q52 -24 88.5 -63.5t36.5 -94.5q0 -83 -72 -136.5t-173 -53.5zM320 378q77 5 124.5 37t47.5 85
q0 43 -42 72.5t-102 29.5q-62 0 -105.5 -31.5t-43.5 -84.5q0 -38 38.5 -68t82.5 -40zM274 62q63 0 111.5 34t48.5 90q0 44 -40.5 76.5t-88.5 44.5q-81 -5 -134 -41.5t-53 -92.5q0 -53 44.5 -82t111.5 -29z" />
    <glyph glyph-name="nine" unicode="9" horiz-adv-x="591" 
d="M347 678q109 0 168.5 -64.5t59.5 -181.5q0 -73 -20.5 -148.5t-59 -142.5t-104 -109.5t-145.5 -42.5q-138 0 -201 100l56 56q43 -82 150 -82q47 0 86 22t66 59.5t45 79t30 89.5q3 9 6 21q-31 -34 -84 -60t-108 -26q-89 0 -146 48t-57 128q0 103 75 178.5t183 75.5z
M345 604q-72 0 -120.5 -50.5t-48.5 -118.5q0 -54 41 -86t107 -32q93 0 169 83q2 18 2 47q0 71 -40 114t-110 43z" />
    <glyph glyph-name="colon" unicode=":" horiz-adv-x="225" 
d="M66 -10q-21 0 -35.5 14.5t-14.5 36.5q0 24 17.5 41.5t42.5 17.5q21 0 35.5 -15t14.5 -36q0 -25 -17.5 -42t-42.5 -17zM152 380q-21 0 -35.5 15t-14.5 36q0 25 17.5 42t42.5 17q21 0 35.5 -14.5t14.5 -35.5q0 -25 -17.5 -42.5t-42.5 -17.5z" />
    <glyph glyph-name="semicolon" unicode=";" horiz-adv-x="230" 
d="M128 42q0 -46 -33.5 -92t-81.5 -71l-31 33q67 34 84 84h-8q-18 0 -30.5 12.5t-12.5 32.5q0 24 18 41.5t42 17.5q23 0 38 -15.5t15 -42.5zM152 380q-21 0 -35.5 15t-14.5 36q0 25 17.5 42t42.5 17q21 0 35.5 -14.5t14.5 -35.5q0 -25 -17.5 -42.5t-42.5 -17.5z" />
    <glyph glyph-name="less" unicode="&#x3c;" horiz-adv-x="499" 
d="M435 90l-393 218l13 53l489 219l-15 -66l-417 -183l336 -181z" />
    <glyph glyph-name="equal" unicode="=" horiz-adv-x="499" 
d="M505 404h-441l12 53h441zM462 211h-441l12 53h441z" />
    <glyph glyph-name="greater" unicode="&#x3e;" horiz-adv-x="499" 
d="M483 308l-489 -218l15 66l418 181l-337 183l13 60l392 -219z" />
    <glyph glyph-name="question" unicode="?" horiz-adv-x="462" 
d="M257 212l-67 -27q-23 30 -23 71q0 40 24.5 70t59.5 48.5t69.5 37t59 44.5t24.5 61q0 39 -32.5 62.5t-89.5 23.5q-89 0 -153 -64l-38 56q88 82 201 82q88 0 144.5 -40.5t56.5 -105.5q0 -49 -26 -86t-63.5 -58.5t-74.5 -39.5t-63 -42t-26 -54q0 -22 17 -39zM174 -10
q-21 0 -35.5 14.5t-14.5 36.5q0 24 18 41.5t43 17.5q21 0 35.5 -15t14.5 -36q0 -25 -18 -42t-43 -17z" />
    <glyph glyph-name="at" unicode="@" horiz-adv-x="783" 
d="M372 -70q-136 0 -226.5 90.5t-90.5 223.5q0 160 119.5 277t277.5 117q139 0 227 -91.5t88 -225.5q0 -110 -52 -173t-121 -63q-40 0 -64.5 23.5t-26.5 57.5v7q-27 -39 -70 -63.5t-89 -24.5q-69 0 -111 45t-42 118q0 102 72 176.5t163 74.5q46 0 79.5 -22t48.5 -56l13 62
h68l-57 -271q-2 -12 -2 -21q0 -24 13.5 -38t33.5 -14q38 0 73.5 45t35.5 137q0 124 -78.5 203.5t-204.5 79.5q-144 0 -252 -108.5t-108 -249.5q0 -121 81.5 -202t205.5 -81q97 0 186 56l18 -26q-98 -63 -208 -63zM365 141q86 0 148 90l29 139q-10 28 -36.5 50.5t-66.5 22.5
q-73 0 -124.5 -58t-51.5 -133q0 -49 27 -80t75 -31z" />
    <glyph glyph-name="A" unicode="A" horiz-adv-x="658" 
d="M595 0h-90l-27 149h-332l-92 -149h-99l416 667h103zM470 222l-62 360l-221 -360h283z" />
    <glyph glyph-name="B" unicode="B" horiz-adv-x="629" 
d="M333 0h-309l147 667h277q74 0 122 -43t48 -110q0 -69 -45.5 -120.5t-108.5 -58.5q42 -11 69.5 -50.5t27.5 -86.5q0 -81 -58.5 -139.5t-169.5 -58.5zM397 378q68 0 99.5 36.5t31.5 87.5q0 39 -29 65t-72 26h-189l-48 -215h207zM331 74q68 0 106.5 38.5t38.5 91.5
q0 44 -29 72t-78 28h-195l-51 -230h208z" />
    <glyph glyph-name="C" unicode="C" horiz-adv-x="676" 
d="M368 -12q-134 0 -221 80.5t-87 211.5q0 88 31.5 163.5t83.5 126.5t120 79.5t140 28.5q97 0 167 -42t106 -115l-80 -31q-28 57 -80 85.5t-117 28.5q-113 0 -198 -90t-85 -230q0 -99 61 -160.5t164 -61.5q99 0 179 77l62 -47q-100 -104 -246 -104z" />
    <glyph glyph-name="D" unicode="D" horiz-adv-x="700" 
d="M251 0h-227l147 667h223q114 0 195.5 -81t81.5 -204q0 -70 -25.5 -136.5t-75 -122t-132.5 -89.5t-187 -34zM238 593l-115 -519h142q143 0 231 88.5t88 215.5q0 93 -58.5 154t-147.5 61h-140z" />
    <glyph glyph-name="E" unicode="E" horiz-adv-x="569" 
d="M461 0h-437l147 667h437l-16 -74h-354l-48 -215h348l-17 -74h-347l-51 -230h354z" />
    <glyph glyph-name="F" unicode="F" horiz-adv-x="551" 
d="M107 0h-83l147 667h437l-16 -74h-354l-48 -215h348l-17 -74h-347z" />
    <glyph glyph-name="G" unicode="G" horiz-adv-x="713" 
d="M368 -12q-137 0 -222.5 81t-85.5 211q0 171 111 284.5t270 113.5q91 0 159 -40t104 -106l-75 -34q-26 50 -79 78t-119 28q-114 0 -198.5 -92t-84.5 -228q0 -100 61.5 -161t163.5 -61q95 0 176 71l30 136h-230l16 74h313l-54 -244q-108 -111 -256 -111z" />
    <glyph glyph-name="H" unicode="H" horiz-adv-x="712" 
d="M580 0h-83l67 306h-390l-67 -306h-83l147 667h83l-63 -287h390l63 287h83z" />
    <glyph glyph-name="I" unicode="I" horiz-adv-x="239" 
d="M107 0h-83l147 667h83z" />
    <glyph glyph-name="J" unicode="J" horiz-adv-x="475" 
d="M158 -12q-58 0 -106 21.5t-74 62.5l50 60q39 -70 126 -70q60 0 98 37.5t53 102.5l102 465h83l-103 -466q-47 -213 -229 -213z" />
    <glyph glyph-name="K" unicode="K" horiz-adv-x="601" 
d="M531 0h-98l-190 304l-87 -80l-49 -224h-83l147 667h83l-75 -337l365 337h109l-348 -316z" />
    <glyph glyph-name="L" unicode="L" horiz-adv-x="493" 
d="M406 0h-393l147 667h83l-131 -593h310z" />
    <glyph glyph-name="M" unicode="M" horiz-adv-x="809" 
d="M677 0h-83l124 561l-350 -561h-34l-103 561l-124 -561h-83l147 667h116l93 -514l321 514h123z" />
    <glyph glyph-name="N" unicode="N" horiz-adv-x="708" 
d="M576 0h-80l-270 537l-119 -537h-83l147 667h85l267 -526l117 526h83z" />
    <glyph glyph-name="O" unicode="O" horiz-adv-x="765" 
d="M368 -12q-133 0 -220.5 78.5t-87.5 213.5q0 167 109 282.5t266 115.5q133 0 220.5 -78t87.5 -213q0 -168 -109 -283.5t-266 -115.5zM373 62q116 0 199 91.5t83 228.5q0 104 -64 163t-161 59q-117 0 -199.5 -91.5t-82.5 -228.5q0 -104 64 -163t161 -59z" />
    <glyph glyph-name="P" unicode="P" horiz-adv-x="587" 
d="M107 0h-83l147 667h259q74 0 124.5 -51t50.5 -121q0 -89 -64 -159.5t-192 -70.5h-184zM356 339h-1q76 0 119.5 43t43.5 106q0 43 -32 74t-79 31h-169l-57 -254h175z" />
    <glyph glyph-name="Q" unicode="Q" horiz-adv-x="765" 
d="M368 -12q-133 0 -220.5 78.5t-87.5 213.5q0 167 109 282.5t266 115.5q133 0 220.5 -78t87.5 -213q0 -99 -41 -183.5t-111 -139.5l41 -58l-66 -37l-39 55q-75 -36 -159 -36zM373 62q57 0 110 25l-79 112l66 36l76 -107q109 96 109 254q0 104 -64 163t-161 59
q-117 0 -199.5 -91.5t-82.5 -228.5q0 -104 64 -163t161 -59z" />
    <glyph glyph-name="R" unicode="R" horiz-adv-x="609" 
d="M508 0h-92l-112 265h-139l-58 -265h-83l147 667h245q76 0 132.5 -47.5t56.5 -126.5q0 -93 -60 -155t-157 -69zM355 338h2q75 0 118 42.5t43 105.5q0 46 -34.5 76.5t-79.5 30.5h-166l-57 -255h174z" />
    <glyph glyph-name="S" unicode="S" horiz-adv-x="586" 
d="M286 -12q-88 0 -161.5 33.5t-108.5 86.5l57 59q35 -49 93 -77t127 -28q72 0 109.5 38t37.5 86q0 30 -24.5 54t-61.5 39t-79.5 34t-79.5 38t-61.5 53.5t-24.5 78.5q0 79 67.5 137t169.5 58q76 0 140.5 -28.5t99.5 -77.5l-56 -58q-33 44 -85 67t-109 23q-58 0 -98 -32.5
t-40 -76.5q0 -33 34 -58t83 -44t97.5 -41t82.5 -61t34 -92q0 -85 -65.5 -148t-177.5 -63z" />
    <glyph glyph-name="T" unicode="T" horiz-adv-x="570" 
d="M272 0h-83l131 593h-211l16 74h506l-16 -74h-212z" />
    <glyph glyph-name="U" unicode="U" horiz-adv-x="701" 
d="M336 -12q-123 0 -191.5 60t-68.5 162q0 24 5 49l90 408h84l-90 -406q-5 -35 -5 -42q1 -70 47.5 -113.5t128.5 -43.5q88 0 136.5 50.5t69.5 148.5l90 406h84l-90 -407q-29 -132 -96.5 -202t-193.5 -70z" />
    <glyph glyph-name="V" unicode="V" horiz-adv-x="658" 
d="M327 0h-103l-122 667h91l98 -576l352 576h99z" />
    <glyph glyph-name="W" unicode="W" horiz-adv-x="883" 
d="M624 0h-90l-28 538l-266 -538h-90l-43 667h90l25 -556l275 556h70l30 -556l270 556h95z" />
    <glyph glyph-name="X" unicode="X" horiz-adv-x="652" 
d="M586 0h-95l-154 282l-272 -282h-107l337 348l-175 319h95l143 -265l251 265h109l-318 -330z" />
    <glyph glyph-name="Y" unicode="Y" horiz-adv-x="626" 
d="M301 0h-83l62 282l-178 385h91l139 -310l275 310h103l-347 -385z" />
    <glyph glyph-name="Z" unicode="Z" horiz-adv-x="585" 
d="M483 0h-489l15 69l485 524h-369l16 74h482l-15 -69l-487 -524h378z" />
    <glyph glyph-name="bracketleft" unicode="[" horiz-adv-x="243" 
d="M129 -190h-185l192 868h186l-12 -55h-128l-168 -758h128z" />
    <glyph glyph-name="backslash" unicode="\" horiz-adv-x="296" 
d="M178 -20l-80 707h59l80 -707h-59z" />
    <glyph glyph-name="bracketright" unicode="]" horiz-adv-x="243" 
d="M107 -190h-186l13 55h127l168 758h-128l12 55h187z" />
    <glyph glyph-name="asciicircum" unicode="^" horiz-adv-x="432" 
d="M432 333h-59l-73 279l-197 -279h-65l243 334h57z" />
    <glyph glyph-name="underscore" unicode="_" horiz-adv-x="564" 
d="M491 -95h-569l13 55h569z" />
    <glyph glyph-name="grave" unicode="`" horiz-adv-x="226" 
d="M295 556h-57l-137 144h78z" />
    <glyph glyph-name="grave" unicode="&#x2cb;" horiz-adv-x="226" 
d="M295 556h-57l-137 144h78z" />
    <glyph glyph-name="a" unicode="a" horiz-adv-x="575" 
d="M293 495q55 0 99.5 -23.5t68.5 -64.5l17 76h75l-107 -483h-75l15 69q-65 -81 -159 -81q-84 0 -135.5 53t-51.5 146q0 124 70.5 216t182.5 92zM303 428q-80 0 -132 -68t-52 -159q0 -67 37 -106.5t98 -39.5q43 0 82.5 23.5t65.5 58.5l47 213q-19 34 -57.5 56t-88.5 22z" />
    <glyph glyph-name="b" unicode="b" horiz-adv-x="575" 
d="M281 -12q-55 0 -99.5 23.5t-68.5 64.5l-17 -76h-75l147 667h75l-55 -253q65 81 159 81q85 0 136 -53t51 -146q0 -124 -70.5 -216t-182.5 -92zM271 55q80 0 132 68t52 159q0 67 -37 106.5t-98 39.5q-43 0 -82.5 -23.5t-65.5 -58.5l-47 -213q19 -34 57.5 -56t88.5 -22z" />
    <glyph glyph-name="c" unicode="c" horiz-adv-x="496" 
d="M262 -12q-99 0 -160.5 58t-61.5 158q0 120 79.5 205.5t192.5 85.5q127 0 181 -90l-57 -43q-38 66 -122 66q-88 0 -142 -66t-54 -157q0 -72 42.5 -111t108.5 -39q74 0 123 58l42 -51q-72 -74 -172 -74z" />
    <glyph glyph-name="d" unicode="d" horiz-adv-x="575" 
d="M293 495q55 0 99.5 -23.5t68.5 -64.5l58 260h75l-148 -667h-75l15 69q-65 -81 -159 -81q-84 0 -135.5 53t-51.5 146q0 124 70.5 216t182.5 92zM303 428q-80 0 -132 -68t-52 -159q0 -67 37 -106.5t98 -39.5q43 0 82.5 23.5t65.5 58.5l47 213q-19 34 -57.5 56t-88.5 22z
" />
    <glyph glyph-name="e" unicode="e" horiz-adv-x="563" 
d="M276 -12q-109 0 -172.5 58.5t-63.5 155.5q0 121 79 207t193 86q95 0 151.5 -59t56.5 -152q0 -30 -8 -67h-393q-2 -8 -2 -23q0 -60 43 -102t121 -42q81 0 139 48l26 -53q-76 -57 -170 -57zM448 273h3q0 2 0.5 8.5t0.5 9.5q0 63 -38.5 102.5t-108.5 39.5q-65 0 -116 -47.5
t-63 -112.5h322z" />
    <glyph glyph-name="f" unicode="f" horiz-adv-x="284" 
d="M117 0h-75l92 417h-80l15 66h80l8 37q36 157 159 157q66 0 107 -41l-40 -46q-22 25 -61 25q-69 0 -90 -95l-8 -37h98l-15 -66h-98z" />
    <glyph glyph-name="g" unicode="g" horiz-adv-x="575" 
d="M212 -196q-148 0 -216 82l47 51q49 -71 167 -71q128 0 163 150l14 61q-64 -81 -164 -81q-81 0 -132.5 50.5t-51.5 148.5q0 121 70 210.5t182 89.5q48 0 95 -24.5t74 -63.5l17 76h76l-105 -467q-47 -212 -236 -212zM253 62q40 0 80 22t68 56l46 208q-20 37 -61 58.5
t-89 21.5q-79 0 -129 -66.5t-50 -154.5q0 -67 36.5 -106t98.5 -39z" />
    <glyph glyph-name="h" unicode="h" horiz-adv-x="552" 
d="M423 0h-75l70 318q5 20 5 33q0 77 -100 77q-75 0 -149 -76l-77 -352h-75l147 667h74l-56 -254q84 82 171 82q65 0 104.5 -31t39.5 -88q0 -21 -6 -41z" />
    <glyph glyph-name="i" unicode="i" horiz-adv-x="225" 
d="M186 552q-20 0 -33 13t-13 31q0 25 18 41t39 16q19 0 32.5 -13t13.5 -31q0 -25 -18 -41t-39 -16zM96 0h-75l107 483h75z" />
    <glyph glyph-name="j" unicode="j" horiz-adv-x="225" 
d="M-68 -196q-79 0 -115 42l37 53q26 -33 68 -33q70 0 89 87l117 530h75l-117 -530q-17 -74 -54 -111.5t-100 -37.5zM186 552q-20 0 -33 13t-13 31q0 25 18 41t39 16q19 0 32.5 -13t13.5 -31q0 -25 -18 -41t-39 -16z" />
    <glyph glyph-name="k" unicode="k" horiz-adv-x="514" 
d="M446 0h-90l-128 220l-101 -82l-31 -138h-75l147 667h75l-96 -436l306 252h99l-263 -219z" />
    <glyph glyph-name="l" unicode="l" horiz-adv-x="225" 
d="M96 0h-75l147 667h75z" />
    <glyph glyph-name="m" unicode="m" horiz-adv-x="808" 
d="M679 0h-75l72 324q3 15 3 27q0 36 -23.5 56.5t-58.5 20.5q-67 0 -132 -76l-78 -352h-75l72 324q4 17 4 31q0 33 -22 53t-62 20q-64 0 -130 -76l-78 -352h-75l107 483h75l-16 -70q71 82 152 82q58 0 92.5 -32.5t34.5 -63.5v-1q77 97 165 97q53 0 90 -31.5t37 -87.5
q0 -11 -5 -41z" />
    <glyph glyph-name="n" unicode="n" horiz-adv-x="552" 
d="M422 0h-74l70 317q5 25 5 34q0 77 -100 77q-77 0 -149 -76l-78 -352h-75l107 483h75l-16 -70q84 82 171 82q65 0 104.5 -31t39.5 -88q0 -19 -6 -41z" />
    <glyph glyph-name="o" unicode="o" horiz-adv-x="572" 
d="M261 -12q-102 0 -161.5 59t-59.5 156q0 117 77.5 204.5t191.5 87.5q102 0 161.5 -59t59.5 -155q0 -118 -77.5 -205.5t-191.5 -87.5zM263 55q80 0 134 67.5t54 155.5q0 69 -38 109.5t-106 40.5q-80 0 -134 -67.5t-54 -155.5q0 -69 38 -109.5t106 -40.5z" />
    <glyph glyph-name="p" unicode="p" horiz-adv-x="572" 
d="M281 -12q-55 0 -99.5 23.5t-68.5 64.5l-58 -260h-75l148 667h75l-15 -69q65 81 159 81q85 0 136 -53t51 -146q0 -124 -70.5 -216t-182.5 -92zM271 55q80 0 132 68t52 159q0 67 -37 106.5t-98 39.5q-43 0 -82.5 -23.5t-65.5 -58.5l-47 -213q19 -34 57.5 -56t88.5 -22z" />
    <glyph glyph-name="q" unicode="q" horiz-adv-x="572" 
d="M293 495q55 0 99.5 -23.5t68.5 -64.5l17 76h75l-148 -667h-75l56 253q-65 -81 -159 -81q-84 0 -135.5 53t-51.5 146q0 124 70.5 216t182.5 92zM303 428q-80 0 -132 -68t-52 -159q0 -67 37 -106.5t98 -39.5q43 0 82.5 23.5t65.5 58.5l47 213q-19 34 -57.5 56t-88.5 22z
" />
    <glyph glyph-name="r" unicode="r" horiz-adv-x="330" 
d="M96 0h-75l107 483h75l-17 -73q38 43 79.5 63.5t100.5 20.5l-17 -78q-12 4 -38 4q-40 0 -77.5 -23t-62.5 -56z" />
    <glyph glyph-name="s" unicode="s" horiz-adv-x="465" 
d="M207 -12q-135 0 -204 86l48 51q21 -31 65 -53.5t95 -22.5q50 0 80.5 25t30.5 60q0 25 -26 44t-63.5 32.5t-75 29t-63.5 42.5t-26 64q0 63 49 106t134 43q59 0 109 -22.5t76 -56.5l-44 -49q-17 28 -58 47.5t-87 19.5q-47 0 -75.5 -21t-28.5 -53q0 -23 26 -41t63.5 -31
t75 -29t63.5 -44.5t26 -67.5q0 -66 -51 -112.5t-139 -46.5z" />
    <glyph glyph-name="t" unicode="t" horiz-adv-x="294" 
d="M167 -12q-111 0 -111 88q0 12 3 28l70 313h-80l15 66h80l29 132h74l-29 -132h99l-15 -66h-98l-67 -298q-1 -5 -1 -19q0 -45 48 -45q26 0 46 16l8 -60q-30 -23 -71 -23z" />
    <glyph glyph-name="u" unicode="u" horiz-adv-x="551" 
d="M128 483h75l-70 -317q-5 -23 -5 -33q0 -78 100 -78q76 0 148 76l78 352h75l-107 -483h-75l16 70q-84 -82 -170 -82q-66 0 -105 31t-39 88q0 13 5 41z" />
    <glyph glyph-name="v" unicode="v" horiz-adv-x="490" 
d="M232 0h-82l-94 483h79l72 -396l249 396h84z" />
    <glyph glyph-name="w" unicode="w" horiz-adv-x="734" 
d="M515 0h-76l-40 388l-212 -388h-75l-47 483h76l31 -385l213 385h65l41 -385l203 385h82z" />
    <glyph glyph-name="x" unicode="x" horiz-adv-x="487" 
d="M421 0h-83l-101 198l-189 -198h-90l239 248l-121 235h82l94 -184l175 184h90l-228 -235z" />
    <glyph glyph-name="y" unicode="y" horiz-adv-x="490" 
d="M-46 -185l26 67q18 -8 48 -8q39 0 71 48l49 75l-92 486h79l72 -396l249 396h84l-372 -581q-61 -98 -150 -98q-37 0 -64 11z" />
    <glyph glyph-name="z" unicode="z" horiz-adv-x="472" 
d="M366 0h-368l12 59l342 358h-262l15 66h364l-13 -57l-344 -360h268z" />
    <glyph glyph-name="braceleft" unicode="{" horiz-adv-x="261" 
d="M147 -190h-48q-45 0 -78.5 30t-33.5 77q0 15 3 27l46 206q2 12 2 17q0 23 -10.5 37.5t-28.5 14.5l12 50q52 0 67 69l46 205q15 67 55 101t99 34h62l-13 -55h-61q-32 0 -54 -20.5t-30 -58.5l-48 -218q-17 -71 -65 -88q29 -15 29 -54q0 -18 -4 -34l-45 -205q-2 -12 -2 -21
q0 -26 16 -42.5t41 -16.5h55z" />
    <glyph glyph-name="bar" unicode="|" horiz-adv-x="211" 
d="M153 -20h-55v707h55v-707z" />
    <glyph glyph-name="braceright" unicode="}" horiz-adv-x="261" 
d="M113 678h48q45 0 78.5 -30t33.5 -77q0 -13 -4 -27l-45 -206q-2 -12 -2 -17q0 -22 10 -37t28 -15l-11 -50q-52 0 -67 -69l-46 -205q-15 -67 -55.5 -101t-99.5 -34h-61l12 55h62q32 0 54 20.5t30 58.5l48 218q15 70 65 88q-29 15 -29 54q0 18 4 34l45 205q2 12 2 21
q0 26 -16.5 42.5t-41.5 16.5h-55z" />
    <glyph glyph-name="asciitilde" unicode="~" horiz-adv-x="503" 
d="M513 667l55 -6q-55 -238 -179 -238q-38 0 -59.5 19.5t-27.5 47.5t-10.5 56t-15.5 47.5t-34 19.5q-36 0 -67.5 -51.5t-52.5 -139.5l-54 7q52 237 178 237q38 0 59.5 -19.5t27.5 -48t10 -56.5t15 -47.5t34 -19.5q37 0 69 52.5t52 139.5z" />
    <glyph glyph-name="nbspace" unicode="&#xa0;" horiz-adv-x="259" 
 />
    <glyph glyph-name="exclamdown" unicode="&#xa1;" horiz-adv-x="230" 
d="M95 296h62l-90 -480h-94zM162 493q21 0 35.5 -14.5t14.5 -35.5q0 -25 -17.5 -42.5t-42.5 -17.5q-21 0 -35.5 15t-14.5 36q0 25 17.5 42t42.5 17z" />
    <glyph glyph-name="cent" unicode="&#xa2;" horiz-adv-x="496" 
d="M262 -12h-9l-19 -88h-59l21 96q-72 18 -114 72t-42 136q0 118 77.5 203.5t189.5 87.5l16 70h59l-17 -75q86 -16 128 -85l-57 -43q-27 47 -86 62l-82 -369h1q74 0 123 58l42 -51q-72 -74 -172 -74zM118 205q0 -55 25 -91t68 -50l81 362q-79 -9 -126.5 -72.5t-47.5 -148.5z
" />
    <glyph glyph-name="sterling" unicode="&#xa3;" horiz-adv-x="518" 
d="M25 268l11 54h116q-4 8 -17.5 30t-20 34t-12.5 33.5t-6 42.5q0 86 71.5 150.5t171.5 64.5q73 0 131.5 -32.5t74.5 -86.5l-75 -33q-9 36 -45 59t-83 23q-64 0 -110 -42t-46 -110q0 -26 8 -48t23.5 -47.5t20.5 -37.5h147l-12 -54h-121v-8q0 -49 -33.5 -94.5t-75.5 -71.5
q21 8 47 8q33 0 82 -20.5t77 -20.5q50 0 92 40l20 -67q-52 -47 -117 -47q-46 0 -108 23t-101 23q-48 0 -115 -40l-16 63q72 29 121 82t49 107q0 7 -2 23h-147z" />
    <glyph glyph-name="currency" unicode="&#xa4;" horiz-adv-x="522" 
d="M461 136l-34 -27l-37 49q-61 -44 -132 -44q-83 0 -145 59l-79 -66l-23 31l77 63q-31 56 -31 108q0 95 80 173l-37 49l32 26l39 -48q60 43 133 43q81 0 143 -57l78 64l25 -30l-78 -64q31 -51 31 -108q0 -91 -80 -173zM454 351q0 68 -43.5 110.5t-111.5 42.5
q-77 0 -135 -56.5t-58 -132.5q0 -68 43.5 -110.5t111.5 -42.5q77 0 135 56.5t58 132.5z" />
    <glyph glyph-name="yen" unicode="&#xa5;" horiz-adv-x="626" 
d="M304 0h-83l27 122h-253l12 53h252l24 107h-253l12 52h217l-154 333h91l139 -310l275 310h103l-300 -333h211l-11 -52h-247l-24 -107h247l-12 -53h-246z" />
    <glyph glyph-name="brokenbar" unicode="&#xa6;" horiz-adv-x="211" 
d="M153 -20h-55v316h55v-316zM153 371h-55v316h55v-316z" />
    <glyph glyph-name="section" unicode="&#xa7;" horiz-adv-x="468" 
d="M436 322q0 -48 -32 -87t-92 -56q69 -38 69 -103q0 -64 -51.5 -110.5t-135.5 -46.5q-140 0 -215 81l48 46q25 -33 69.5 -52t96.5 -19q49 0 80.5 26t31.5 64q0 27 -26 46.5t-62.5 33t-73.5 29t-63 43.5t-26 68q0 50 38 87.5t107 49.5q-90 37 -90 110q0 59 49 102t131 43
q131 0 195 -75l-44 -41q-47 60 -148 60q-48 0 -78.5 -23t-30.5 -57q0 -27 26 -46t63.5 -32t74.5 -28t63 -43.5t26 -69.5zM359 306q0 33 -25 53t-69 35q-67 -9 -101 -35t-34 -60t28.5 -53.5t93.5 -41.5q55 15 81 43t26 59z" />
    <glyph glyph-name="dieresis" unicode="&#xa8;" horiz-adv-x="272" 
d="M365 609q0 -20 -15.5 -35.5t-36.5 -15.5q-17 0 -29 12t-12 29q0 20 15.5 35.5t36.5 15.5q17 0 29 -12t12 -29zM159 609q0 -20 -16 -35.5t-36 -15.5q-17 0 -29 12t-12 29q0 20 15.5 35.5t36.5 15.5q17 0 29 -12t12 -29z" />
    <glyph glyph-name="copyright" unicode="&#xa9;" horiz-adv-x="778" 
d="M754 334q0 -143 -101.5 -244t-244.5 -101q-142 0 -243 101t-101 244t100.5 244t243.5 101t244.5 -101t101.5 -244zM723 334q0 130 -92.5 222t-222.5 92q-129 0 -221 -92t-92 -222q0 -129 92 -221.5t221 -92.5q130 0 222.5 92.5t92.5 221.5zM505 201l20 -28
q-62 -52 -135 -52q-88 0 -140 53t-52 133q0 100 72 170.5t164 70.5q107 0 156 -80l-31 -22q-37 69 -126 69q-75 0 -136.5 -60t-61.5 -147q0 -65 43 -109.5t112 -44.5q68 0 115 47z" />
    <glyph glyph-name="ordfeminine" unicode="&#xaa;" horiz-adv-x="410" 
d="M268 602q-50 0 -85.5 -43t-35.5 -101q0 -45 23.5 -69t63.5 -24q53 0 96 49l32 143q-13 20 -38.5 32.5t-55.5 12.5zM380 640h57l-69 -314h-58l10 46q-45 -54 -107 -54q-54 0 -90 35t-36 99q0 80 49 138t121 58q78 0 113 -54z" />
    <glyph glyph-name="guillemotleft" unicode="&#xab;" horiz-adv-x="439" 
d="M220 63h-71l-120 180l200 177h79l-204 -182zM364 63h-71l-120 180l200 177h79l-204 -182z" />
    <glyph glyph-name="logicalnot" unicode="&#xac;" horiz-adv-x="504" 
d="M517 457l-55 -246h-55l43 193h-386l12 53h441z" />
    <glyph glyph-name="registered" unicode="&#xae;" horiz-adv-x="494" 
d="M508 465q0 -88 -62.5 -150t-150.5 -62t-149.5 62t-61.5 150t62 150t150 62t150 -61.5t62 -150.5zM479 465q0 77 -54 130t-130 53q-77 0 -129.5 -53t-52.5 -130q0 -75 53 -129t129 -54t130 54t54 129zM367 343h-38l-42 96h-46l-21 -96h-32l53 243h92q30 0 50 -17.5
t20 -46.5q0 -34 -25.5 -58t-54.5 -24zM369 519q0 18 -11.5 28.5t-29.5 10.5h-61l-20 -90h68q23 0 38.5 14.5t15.5 36.5z" />
    <glyph glyph-name="macron" unicode="&#xaf;" horiz-adv-x="363" 
d="M439 591h-362l11 48h362z" />
    <glyph glyph-name="macron" unicode="&#x203e;" horiz-adv-x="363" 
d="M439 591h-362l11 48h362z" />
    <glyph glyph-name="degree" unicode="&#xb0;" horiz-adv-x="290" 
d="M336 555q0 -51 -36 -86.5t-87 -35.5q-50 0 -85.5 35.5t-35.5 86.5q0 50 35.5 86t85.5 36q51 0 87 -36t36 -86zM288 555q0 30 -22 52t-53 22q-30 0 -51.5 -22t-21.5 -52q0 -31 21 -52t51 -21q31 0 53.5 21.5t22.5 51.5z" />
    <glyph glyph-name="plusminus" unicode="&#xb1;" horiz-adv-x="499" 
d="M487 324h-192l-47 -213h-57l47 213h-192l12 52h192l45 207h58l-46 -207h192zM416 0h-441l11 53h441z" />
    <glyph glyph-name="twosuperior" unicode="&#xb2;" 
d="M381 421h-292l11 49q156 94 219 144t63 101q0 30 -24.5 46.5t-60.5 16.5q-69 0 -112 -46l-28 39q56 56 142 56q59 0 101.5 -27.5t42.5 -81.5q0 -60 -63.5 -116t-189.5 -132h201z" />
    <glyph glyph-name="threesuperior" unicode="&#xb3;" 
d="M407 535q0 -48 -40 -84.5t-107 -36.5q-55 0 -97 19t-63 54l40 35q39 -59 118 -59q41 0 65 23t24 57q0 26 -27.5 42.5t-72.5 16.5q-23 0 -30 -1l11 50q28 -2 61 -2q42 0 67 18t25 50q0 28 -27.5 44.5t-65.5 16.5q-58 0 -108 -43l-23 39q58 53 135 53q65 0 107.5 -26.5
t42.5 -75.5q0 -44 -31 -72t-81 -32q32 -6 54.5 -29t22.5 -57z" />
    <glyph glyph-name="acute" unicode="&#xb4;" horiz-adv-x="226" 
d="M327 700l-201 -144h-59l180 144h80z" />
    <glyph glyph-name="mu" unicode="&#xb5;" horiz-adv-x="551" 
d="M55 -184h-75l148 667h75l-75 -337q-6 -50 16.5 -71.5t71.5 -21.5q41 0 85 22t74 53l79 355h75l-107 -483h-75l15 68q-38 -34 -88.5 -57t-101.5 -23q-45 0 -76 14z" />
    <glyph glyph-name="mu" unicode="&#x3bc;" horiz-adv-x="551" 
d="M55 -184h-75l148 667h75l-75 -337q-6 -50 16.5 -71.5t71.5 -21.5q41 0 85 22t74 53l79 355h75l-107 -483h-75l15 68q-38 -34 -88.5 -57t-101.5 -23q-45 0 -76 14z" />
    <glyph glyph-name="paragraph" unicode="&#xb6;" horiz-adv-x="449" 
d="M301 -100h-45l161 722h-89l-161 -722h-45l94 423q-57 0 -97 44.5t-40 111.5q0 73 56.5 130.5t137.5 57.5h198z" />
    <glyph glyph-name="periodcentered" unicode="&#xb7;" horiz-adv-x="231" 
d="M110 190q-21 0 -35.5 14.5t-14.5 35.5q0 25 17.5 42.5t42.5 17.5q21 0 35.5 -15t14.5 -36q0 -25 -17.5 -42t-42.5 -17z" />
    <glyph glyph-name="periodcentered" unicode="&#x2219;" horiz-adv-x="231" 
d="M110 190q-21 0 -35.5 14.5t-14.5 35.5q0 25 17.5 42.5t42.5 17.5q21 0 35.5 -15t14.5 -36q0 -25 -17.5 -42t-42.5 -17z" />
    <glyph glyph-name="cedilla" unicode="&#xb8;" horiz-adv-x="205" 
d="M19 -191q-68 0 -108 38l27 36q33 -35 83 -35q29 0 45 13t16 34q0 30 -36 30q-21 0 -36 -17l-29 19l50 84h45l-40 -66q12 11 33 11q26 0 42 -15.5t16 -42.5q0 -40 -30 -64.5t-78 -24.5z" />
    <glyph glyph-name="onesuperior" unicode="&#xb9;" horiz-adv-x="235" 
d="M214 421h-60l69 318l-78 -66l-29 38l133 110h53z" />
    <glyph glyph-name="ordmasculine" unicode="&#xba;" horiz-adv-x="405" 
d="M239 318q-68 0 -109 39.5t-41 103.5q0 77 53.5 132t128.5 55q68 0 109 -39.5t41 -103.5q0 -77 -53 -132t-129 -55zM240 366q54 0 88 42t34 98q0 42 -25 67.5t-67 25.5q-54 0 -87.5 -41.5t-33.5 -98.5q0 -41 25 -67t66 -26z" />
    <glyph glyph-name="guillemotright" unicode="&#xbb;" horiz-adv-x="439" 
d="M77 420h71l120 -180l-200 -177h-79l204 182zM221 420h71l120 -180l-200 -177h-79l204 182z" />
    <glyph glyph-name="onequarter" unicode="&#xbc;" horiz-adv-x="770" 
d="M683 667l-574 -667h-54l573 667h55zM701 100h-57l-22 -100h-60l22 100h-196l9 45l230 255h83l-56 -251h57zM594 149l44 194l-179 -194h135zM180 267h-60l69 318l-78 -66l-29 38l133 110h53z" />
    <glyph glyph-name="onehalf" unicode="&#xbd;" horiz-adv-x="807" 
d="M683 667l-574 -667h-54l573 667h55zM707 0h-292l11 49q156 94 219 144t63 101q0 30 -24.5 46.5t-60.5 16.5q-69 0 -112 -46l-28 39q56 56 142 56q59 0 101.5 -27.5t42.5 -81.5q0 -60 -63.5 -116t-189.5 -132h201zM180 267h-60l69 318l-78 -66l-29 38l133 110h53z" />
    <glyph glyph-name="threequarters" unicode="&#xbe;" horiz-adv-x="878" 
d="M791 667l-574 -667h-54l573 667h55zM810 100h-57l-22 -100h-60l22 100h-196l9 45l230 255h83l-56 -251h57zM703 149l44 194l-179 -194h135zM373 381q0 -48 -40 -84.5t-107 -36.5q-55 0 -97 19t-63 54l40 35q39 -59 118 -59q41 0 65 23t24 57q0 26 -27.5 42.5t-72.5 16.5
q-23 0 -30 -1l11 50q28 -2 61 -2q42 0 67 18t25 50q0 28 -27.5 44.5t-65.5 16.5q-58 0 -108 -43l-23 39q58 53 135 53q65 0 107.5 -26.5t42.5 -75.5q0 -44 -31 -72t-81 -32q32 -6 54.5 -29t22.5 -57z" />
    <glyph glyph-name="questiondown" unicode="&#xbf;" horiz-adv-x="394" 
d="M204 271l66 27q24 -33 24 -71q0 -40 -24.5 -70t-59.5 -49t-70 -37t-59.5 -44t-24.5 -61q0 -39 32.5 -63t89.5 -24q87 0 154 65l37 -56q-86 -82 -201 -82q-88 0 -144.5 40.5t-56.5 105.5q0 42 19 75t47 52t61 38t61 33t47 35t19 47q0 22 -17 39zM286 493q21 0 35.5 -15
t14.5 -36q0 -24 -18 -41.5t-42 -17.5q-22 0 -36.5 15t-14.5 36q0 25 18 42t43 17z" />
    <glyph glyph-name="Agrave" unicode="&#xc0;" horiz-adv-x="658" 
d="M503 728h-57l-137 144h78zM595 0h-90l-27 149h-332l-92 -149h-99l416 667h103zM470 222l-62 360l-221 -360h283z" />
    <glyph glyph-name="Aacute" unicode="&#xc1;" horiz-adv-x="658" 
d="M629 872l-201 -144h-59l180 144h80zM595 0h-90l-27 149h-332l-92 -149h-99l416 667h103zM470 222l-62 360l-221 -360h283z" />
    <glyph glyph-name="Acircumflex" unicode="&#xc2;" horiz-adv-x="658" 
d="M570 728h-49l-60 106l-103 -106h-53l127 144h72zM595 0h-90l-27 149h-332l-92 -149h-99l416 667h103zM470 222l-62 360l-221 -360h283z" />
    <glyph glyph-name="Atilde" unicode="&#xc3;" horiz-adv-x="658" 
d="M507 726q-25 0 -42 14.5t-24.5 31.5t-20.5 31.5t-31 14.5q-43 0 -62 -86h-46q27 134 114 134q25 0 42 -14.5t24.5 -31.5t21 -31.5t31.5 -14.5q42 0 62 86h46q-29 -134 -115 -134zM595 0h-90l-27 149h-332l-92 -149h-99l416 667h103zM470 222l-62 360l-221 -360h283z" />
    <glyph glyph-name="Adieresis" unicode="&#xc4;" horiz-adv-x="658" 
d="M597 778q0 -20 -15.5 -35.5t-36.5 -15.5q-17 0 -29 12t-12 29q0 20 15.5 35.5t36.5 15.5q17 0 29 -12t12 -29zM391 778q0 -20 -16 -35.5t-36 -15.5q-17 0 -29 12t-12 29q0 20 15.5 35.5t36.5 15.5q17 0 29 -12t12 -29zM595 0h-90l-27 149h-332l-92 -149h-99l416 667h103z
M470 222l-62 360l-221 -360h283z" />
    <glyph glyph-name="Aring" unicode="&#xc5;" horiz-adv-x="658" 
d="M440 692q-39 0 -64 25t-25 64q0 44 32 76t76 32q40 0 64.5 -24.5t24.5 -64.5q0 -44 -32 -76t-76 -32zM443 732q26 0 45.5 19t19.5 45q0 24 -14 38.5t-37 14.5q-26 0 -46 -19t-20 -45q0 -23 14.5 -38t37.5 -15zM595 0h-90l-27 149h-332l-92 -149h-99l416 667h103zM470 222
l-62 360l-221 -360h283z" />
    <glyph glyph-name="AE" unicode="&#xc6;" horiz-adv-x="948" 
d="M839 0h-437l32 149h-258l-124 -149h-99l563 667h470l-16 -74h-354l-48 -215h348l-17 -74h-347l-51 -230h354zM451 222l78 354l-297 -354h219z" />
    <glyph glyph-name="Ccedilla" unicode="&#xc7;" horiz-adv-x="676" 
d="M368 -12q-13 0 -19 1l-26 -44q12 11 33 11q26 0 42 -15.5t16 -42.5q0 -40 -30 -64.5t-78 -24.5q-68 0 -108 38l27 36q33 -35 83 -35q29 0 45 13t16 34q0 30 -36 30q-21 0 -36 -17l-29 19l39 66q-111 18 -179 95t-68 192q0 88 31.5 163.5t83.5 126.5t120 79.5t140 28.5
q97 0 167 -42t106 -115l-80 -31q-28 57 -80 85.5t-117 28.5q-113 0 -198 -90t-85 -230q0 -99 61 -160.5t164 -61.5q99 0 179 77l62 -47q-100 -104 -246 -104z" />
    <glyph glyph-name="Egrave" unicode="&#xc8;" horiz-adv-x="569" 
d="M470 728h-57l-137 144h78zM461 0h-437l147 667h437l-16 -74h-354l-48 -215h348l-17 -74h-347l-51 -230h354z" />
    <glyph glyph-name="Eacute" unicode="&#xc9;" horiz-adv-x="569" 
d="M595 872l-201 -144h-59l180 144h80zM461 0h-437l147 667h437l-16 -74h-354l-48 -215h348l-17 -74h-347l-51 -230h354z" />
    <glyph glyph-name="Ecircumflex" unicode="&#xca;" horiz-adv-x="569" 
d="M535 728h-49l-60 106l-103 -106h-53l127 144h72zM461 0h-437l147 667h437l-16 -74h-354l-48 -215h348l-17 -74h-347l-51 -230h354z" />
    <glyph glyph-name="Edieresis" unicode="&#xcb;" horiz-adv-x="569" 
d="M563 778q0 -20 -15.5 -35.5t-36.5 -15.5q-17 0 -29 12t-12 29q0 20 15.5 35.5t36.5 15.5q17 0 29 -12t12 -29zM357 778q0 -20 -16 -35.5t-36 -15.5q-17 0 -29 12t-12 29q0 20 15.5 35.5t36.5 15.5q17 0 29 -12t12 -29zM461 0h-437l147 667h437l-16 -74h-354l-48 -215h348
l-17 -74h-347l-51 -230h354z" />
    <glyph glyph-name="Igrave" unicode="&#xcc;" horiz-adv-x="239" 
d="M292 728h-57l-137 144h78zM107 0h-83l147 667h83z" />
    <glyph glyph-name="Iacute" unicode="&#xcd;" horiz-adv-x="239" 
d="M420 872l-201 -144h-59l180 144h80zM107 0h-83l147 667h83z" />
    <glyph glyph-name="Icircumflex" unicode="&#xce;" horiz-adv-x="239" 
d="M359 728h-49l-60 106l-103 -106h-53l127 144h72zM107 0h-83l147 667h83z" />
    <glyph glyph-name="Idieresis" unicode="&#xcf;" horiz-adv-x="239" 
d="M386 778q0 -20 -15.5 -35.5t-36.5 -15.5q-17 0 -29 12t-12 29q0 20 15.5 35.5t36.5 15.5q17 0 29 -12t12 -29zM180 778q0 -20 -16 -35.5t-36 -15.5q-17 0 -29 12t-12 29q0 20 15.5 35.5t36.5 15.5q17 0 29 -12t12 -29zM107 0h-83l147 667h83z" />
    <glyph glyph-name="Eth" unicode="&#xd0;" horiz-adv-x="728" 
d="M279 0h-227l66 300h-96l16 68h95l66 299h223q114 0 195.5 -81t81.5 -204q0 -70 -25.5 -136.5t-75 -122t-132.5 -89.5t-187 -34zM370 300h-169l-50 -226h142q143 0 231 88.5t88 215.5q0 93 -58.5 154t-147.5 61h-140l-50 -225h169z" />
    <glyph glyph-name="Ntilde" unicode="&#xd1;" horiz-adv-x="708" 
d="M530 726q-25 0 -42 14.5t-24.5 31.5t-20.5 31.5t-31 14.5q-43 0 -62 -86h-46q27 134 114 134q25 0 42 -14.5t24.5 -31.5t21 -31.5t31.5 -14.5q42 0 62 86h46q-29 -134 -115 -134zM576 0h-80l-270 537l-119 -537h-83l147 667h85l267 -526l117 526h83z" />
    <glyph glyph-name="Ograve" unicode="&#xd2;" horiz-adv-x="765" 
d="M559 728h-57l-137 144h78zM368 -12q-133 0 -220.5 78.5t-87.5 213.5q0 167 109 282.5t266 115.5q133 0 220.5 -78t87.5 -213q0 -168 -109 -283.5t-266 -115.5zM373 62q116 0 199 91.5t83 228.5q0 104 -64 163t-161 59q-117 0 -199.5 -91.5t-82.5 -228.5q0 -104 64 -163
t161 -59z" />
    <glyph glyph-name="Oacute" unicode="&#xd3;" horiz-adv-x="765" 
d="M683 872l-201 -144h-59l180 144h80zM368 -12q-133 0 -220.5 78.5t-87.5 213.5q0 167 109 282.5t266 115.5q133 0 220.5 -78t87.5 -213q0 -168 -109 -283.5t-266 -115.5zM373 62q116 0 199 91.5t83 228.5q0 104 -64 163t-161 59q-117 0 -199.5 -91.5t-82.5 -228.5
q0 -104 64 -163t161 -59z" />
    <glyph glyph-name="Ocircumflex" unicode="&#xd4;" horiz-adv-x="765" 
d="M624 728h-49l-60 106l-103 -106h-53l127 144h72zM368 -12q-133 0 -220.5 78.5t-87.5 213.5q0 167 109 282.5t266 115.5q133 0 220.5 -78t87.5 -213q0 -168 -109 -283.5t-266 -115.5zM373 62q116 0 199 91.5t83 228.5q0 104 -64 163t-161 59q-117 0 -199.5 -91.5
t-82.5 -228.5q0 -104 64 -163t161 -59z" />
    <glyph glyph-name="Otilde" unicode="&#xd5;" horiz-adv-x="765" 
d="M560 726q-25 0 -42 14.5t-24.5 31.5t-20.5 31.5t-31 14.5q-43 0 -62 -86h-46q27 134 114 134q25 0 42 -14.5t24.5 -31.5t21 -31.5t31.5 -14.5q42 0 62 86h46q-29 -134 -115 -134zM368 -12q-133 0 -220.5 78.5t-87.5 213.5q0 167 109 282.5t266 115.5q133 0 220.5 -78
t87.5 -213q0 -168 -109 -283.5t-266 -115.5zM373 62q116 0 199 91.5t83 228.5q0 104 -64 163t-161 59q-117 0 -199.5 -91.5t-82.5 -228.5q0 -104 64 -163t161 -59z" />
    <glyph glyph-name="Odieresis" unicode="&#xd6;" horiz-adv-x="765" 
d="M649 778q0 -20 -15.5 -35.5t-36.5 -15.5q-17 0 -29 12t-12 29q0 20 15.5 35.5t36.5 15.5q17 0 29 -12t12 -29zM443 778q0 -20 -16 -35.5t-36 -15.5q-17 0 -29 12t-12 29q0 20 15.5 35.5t36.5 15.5q17 0 29 -12t12 -29zM368 -12q-133 0 -220.5 78.5t-87.5 213.5
q0 167 109 282.5t266 115.5q133 0 220.5 -78t87.5 -213q0 -168 -109 -283.5t-266 -115.5zM373 62q116 0 199 91.5t83 228.5q0 104 -64 163t-161 59q-117 0 -199.5 -91.5t-82.5 -228.5q0 -104 64 -163t161 -59z" />
    <glyph glyph-name="multiply" unicode="&#xd7;" horiz-adv-x="499" 
d="M379 150l-115 147l-182 -150l-34 40l185 151l-115 146l42 34l114 -147l183 150l32 -40l-183 -150l114 -147z" />
    <glyph glyph-name="Oslash" unicode="&#xd8;" horiz-adv-x="765" 
d="M368 -12q-112 0 -194 57l-40 -45h-67l69 78q-76 79 -76 202q0 167 109 282.5t266 115.5q109 0 189 -54l39 43h67l-67 -75q80 -78 80 -205q0 -168 -109 -283.5t-266 -115.5zM373 62q116 0 199 91.5t83 228.5q0 89 -49 146l-377 -422q59 -44 144 -44zM148 284
q0 -85 45 -143l376 421q-57 42 -139 42q-117 0 -199.5 -91.5t-82.5 -228.5z" />
    <glyph glyph-name="Ugrave" unicode="&#xd9;" horiz-adv-x="701" 
d="M525 728h-57l-137 144h78zM336 -12q-123 0 -191.5 60t-68.5 162q0 24 5 49l90 408h84l-90 -406q-5 -35 -5 -42q1 -70 47.5 -113.5t128.5 -43.5q88 0 136.5 50.5t69.5 148.5l90 406h84l-90 -407q-29 -132 -96.5 -202t-193.5 -70z" />
    <glyph glyph-name="Uacute" unicode="&#xda;" horiz-adv-x="701" 
d="M649 872l-201 -144h-59l180 144h80zM336 -12q-123 0 -191.5 60t-68.5 162q0 24 5 49l90 408h84l-90 -406q-5 -35 -5 -42q1 -70 47.5 -113.5t128.5 -43.5q88 0 136.5 50.5t69.5 148.5l90 406h84l-90 -407q-29 -132 -96.5 -202t-193.5 -70z" />
    <glyph glyph-name="Ucircumflex" unicode="&#xdb;" horiz-adv-x="701" 
d="M595 728h-49l-60 106l-103 -106h-53l127 144h72zM336 -12q-123 0 -191.5 60t-68.5 162q0 24 5 49l90 408h84l-90 -406q-5 -35 -5 -42q1 -70 47.5 -113.5t128.5 -43.5q88 0 136.5 50.5t69.5 148.5l90 406h84l-90 -407q-29 -132 -96.5 -202t-193.5 -70z" />
    <glyph glyph-name="Udieresis" unicode="&#xdc;" horiz-adv-x="701" 
d="M618 778q0 -20 -15.5 -35.5t-36.5 -15.5q-17 0 -29 12t-12 29q0 20 15.5 35.5t36.5 15.5q17 0 29 -12t12 -29zM412 778q0 -20 -16 -35.5t-36 -15.5q-17 0 -29 12t-12 29q0 20 15.5 35.5t36.5 15.5q17 0 29 -12t12 -29zM336 -12q-123 0 -191.5 60t-68.5 162q0 24 5 49
l90 408h84l-90 -406q-5 -35 -5 -42q1 -70 47.5 -113.5t128.5 -43.5q88 0 136.5 50.5t69.5 148.5l90 406h84l-90 -407q-29 -132 -96.5 -202t-193.5 -70z" />
    <glyph glyph-name="Yacute" unicode="&#xdd;" horiz-adv-x="626" 
d="M616 872l-201 -144h-59l180 144h80zM301 0h-83l62 282l-178 385h91l139 -310l275 310h103l-347 -385z" />
    <glyph glyph-name="Thorn" unicode="&#xde;" horiz-adv-x="587" 
d="M107 0h-83l147 667h83l-26 -119h175q74 0 124.5 -50.5t50.5 -122.5q0 -41 -14.5 -80t-43.5 -73t-80 -55t-117 -21h-184zM329 220q77 0 119.5 43.5t42.5 105.5q0 44 -33 74.5t-78 30.5h-169l-56 -254h174z" />
    <glyph glyph-name="germandbls" unicode="&#xdf;" horiz-adv-x="597" 
d="M559 145q0 -63 -50.5 -110t-136.5 -47q-69 0 -116.5 21t-87.5 69l47 47q58 -75 159 -75q50 0 80 26t30 60q0 25 -25 42.5t-60 29.5t-70.5 26t-60.5 40t-25 63q0 38 19.5 66t47.5 44t56.5 29t48 29.5t19.5 37.5q0 30 -30 48.5t-68 18.5q-48 0 -83 -30t-46 -81l-110 -499
h-75l110 499q18 79 71 128.5t135 49.5q68 0 121.5 -34t53.5 -87q0 -36 -20 -62.5t-49 -41.5t-58 -28t-49 -31.5t-20 -43.5q0 -23 25 -40t60.5 -29.5t71 -27t60.5 -42t25 -65.5z" />
    <glyph glyph-name="agrave" unicode="&#xe0;" horiz-adv-x="575" 
d="M293 495q55 0 99.5 -23.5t68.5 -64.5l17 76h75l-107 -483h-75l15 69q-65 -81 -159 -81q-84 0 -135.5 53t-51.5 146q0 124 70.5 216t182.5 92zM303 428q-80 0 -132 -68t-52 -159q0 -67 37 -106.5t98 -39.5q43 0 82.5 23.5t65.5 58.5l47 213q-19 34 -57.5 56t-88.5 22z
M406 556h-57l-137 144h78z" />
    <glyph glyph-name="aacute" unicode="&#xe1;" horiz-adv-x="575" 
d="M293 495q55 0 99.5 -23.5t68.5 -64.5l17 76h75l-107 -483h-75l15 69q-65 -81 -159 -81q-84 0 -135.5 53t-51.5 146q0 124 70.5 216t182.5 92zM303 428q-80 0 -132 -68t-52 -159q0 -67 37 -106.5t98 -39.5q43 0 82.5 23.5t65.5 58.5l47 213q-19 34 -57.5 56t-88.5 22z
M532 700l-201 -144h-59l180 144h80z" />
    <glyph glyph-name="acircumflex" unicode="&#xe2;" horiz-adv-x="575" 
d="M293 495q55 0 99.5 -23.5t68.5 -64.5l17 76h75l-107 -483h-75l15 69q-65 -81 -159 -81q-84 0 -135.5 53t-51.5 146q0 124 70.5 216t182.5 92zM303 428q-80 0 -132 -68t-52 -159q0 -67 37 -106.5t98 -39.5q43 0 82.5 23.5t65.5 58.5l47 213q-19 34 -57.5 56t-88.5 22z
M474 556h-49l-60 106l-103 -106h-53l127 144h72z" />
    <glyph glyph-name="atilde" unicode="&#xe3;" horiz-adv-x="575" 
d="M293 495q55 0 99.5 -23.5t68.5 -64.5l17 76h75l-107 -483h-75l15 69q-65 -81 -159 -81q-84 0 -135.5 53t-51.5 146q0 124 70.5 216t182.5 92zM303 428q-80 0 -132 -68t-52 -159q0 -67 37 -106.5t98 -39.5q43 0 82.5 23.5t65.5 58.5l47 213q-19 34 -57.5 56t-88.5 22z
M410 554q-25 0 -42 14.5t-24.5 31.5t-20.5 31.5t-31 14.5q-43 0 -62 -86h-46q27 134 114 134q25 0 42 -14.5t24.5 -31.5t21 -31.5t31.5 -14.5q42 0 62 86h46q-29 -134 -115 -134z" />
    <glyph glyph-name="adieresis" unicode="&#xe4;" horiz-adv-x="575" 
d="M293 495q55 0 99.5 -23.5t68.5 -64.5l17 76h75l-107 -483h-75l15 69q-65 -81 -159 -81q-84 0 -135.5 53t-51.5 146q0 124 70.5 216t182.5 92zM303 428q-80 0 -132 -68t-52 -159q0 -67 37 -106.5t98 -39.5q43 0 82.5 23.5t65.5 58.5l47 213q-19 34 -57.5 56t-88.5 22z
M501 609q0 -20 -15.5 -35.5t-36.5 -15.5q-17 0 -29 12t-12 29q0 20 15.5 35.5t36.5 15.5q17 0 29 -12t12 -29zM295 609q0 -20 -16 -35.5t-36 -15.5q-17 0 -29 12t-12 29q0 20 15.5 35.5t36.5 15.5q17 0 29 -12t12 -29z" />
    <glyph glyph-name="aring" unicode="&#xe5;" horiz-adv-x="575" 
d="M293 495q55 0 99.5 -23.5t68.5 -64.5l17 76h75l-107 -483h-75l15 69q-65 -81 -159 -81q-84 0 -135.5 53t-51.5 146q0 124 70.5 216t182.5 92zM303 428q-80 0 -132 -68t-52 -159q0 -67 37 -106.5t98 -39.5q43 0 82.5 23.5t65.5 58.5l47 213q-19 34 -57.5 56t-88.5 22z
M352 547q-39 0 -64 25t-25 64q0 44 32 76t76 32q40 0 64.5 -24.5t24.5 -64.5q0 -44 -32 -76t-76 -32zM355 587q26 0 45.5 19t19.5 45q0 24 -14 38.5t-37 14.5q-26 0 -46 -19t-20 -45q0 -23 14.5 -38t37.5 -15z" />
    <glyph glyph-name="ae" unicode="&#xe6;" horiz-adv-x="939" 
d="M662 -12q-76 0 -124.5 34.5t-66.5 92.5l-25 -115h-75l16 69q-65 -81 -160 -81q-84 0 -135.5 53t-51.5 146q0 80 30.5 149.5t89.5 114t134 44.5q113 0 168 -88l16 76h75l-18 -80q74 92 174 92q90 0 138.5 -56t48.5 -151q0 -40 -9 -71h-389q-1 -4 -1 -23q0 -60 42.5 -101
t121.5 -41q76 0 134 47l26 -54q-76 -57 -159 -57zM303 428q-80 0 -131.5 -68t-51.5 -159q0 -67 37 -106.5t97 -39.5q44 0 83.5 23.5t64.5 58.5l47 213q-18 34 -57 56t-89 22zM826 273q1 4 1 18q0 64 -36.5 103t-105.5 39q-65 0 -116 -47.5t-63 -112.5h320z" />
    <glyph glyph-name="ccedilla" unicode="&#xe7;" horiz-adv-x="496" 
d="M208 -191q-68 0 -108 38l27 36q33 -35 83 -35q29 0 45 13t16 34q0 30 -36 30q-21 0 -36 -17l-29 19l39 66q-78 14 -123.5 69.5t-45.5 141.5q0 120 79.5 205.5t192.5 85.5q127 0 181 -90l-57 -43q-38 66 -122 66q-88 0 -142 -66t-54 -157q0 -72 42.5 -111t108.5 -39
q74 0 123 58l42 -51q-72 -74 -172 -74h-11l-26 -43q12 11 33 11q26 0 42 -15.5t16 -42.5q0 -40 -30 -64.5t-78 -24.5z" />
    <glyph glyph-name="egrave" unicode="&#xe8;" horiz-adv-x="563" 
d="M276 -12q-109 0 -172.5 58.5t-63.5 155.5q0 121 79 207t193 86q95 0 151.5 -59t56.5 -152q0 -30 -8 -67h-393q-2 -8 -2 -23q0 -60 43 -102t121 -42q81 0 139 48l26 -53q-76 -57 -170 -57zM448 273h3q0 2 0.5 8.5t0.5 9.5q0 63 -38.5 102.5t-108.5 39.5q-65 0 -116 -47.5
t-63 -112.5h322zM421 556h-57l-137 144h78z" />
    <glyph glyph-name="eacute" unicode="&#xe9;" horiz-adv-x="563" 
d="M276 -12q-109 0 -172.5 58.5t-63.5 155.5q0 121 79 207t193 86q95 0 151.5 -59t56.5 -152q0 -30 -8 -67h-393q-2 -8 -2 -23q0 -60 43 -102t121 -42q81 0 139 48l26 -53q-76 -57 -170 -57zM448 273h3q0 2 0.5 8.5t0.5 9.5q0 63 -38.5 102.5t-108.5 39.5q-65 0 -116 -47.5
t-63 -112.5h322zM547 700l-201 -144h-59l180 144h80z" />
    <glyph glyph-name="ecircumflex" unicode="&#xea;" horiz-adv-x="563" 
d="M276 -12q-109 0 -172.5 58.5t-63.5 155.5q0 121 79 207t193 86q95 0 151.5 -59t56.5 -152q0 -30 -8 -67h-393q-2 -8 -2 -23q0 -60 43 -102t121 -42q81 0 139 48l26 -53q-76 -57 -170 -57zM448 273h3q0 2 0.5 8.5t0.5 9.5q0 63 -38.5 102.5t-108.5 39.5q-65 0 -116 -47.5
t-63 -112.5h322zM488 556h-49l-60 106l-103 -106h-53l127 144h72z" />
    <glyph glyph-name="edieresis" unicode="&#xeb;" horiz-adv-x="563" 
d="M276 -12q-109 0 -172.5 58.5t-63.5 155.5q0 121 79 207t193 86q95 0 151.5 -59t56.5 -152q0 -30 -8 -67h-393q-2 -8 -2 -23q0 -60 43 -102t121 -42q81 0 139 48l26 -53q-76 -57 -170 -57zM448 273h3q0 2 0.5 8.5t0.5 9.5q0 63 -38.5 102.5t-108.5 39.5q-65 0 -116 -47.5
t-63 -112.5h322zM515 609q0 -20 -15.5 -35.5t-36.5 -15.5q-17 0 -29 12t-12 29q0 20 15.5 35.5t36.5 15.5q17 0 29 -12t12 -29zM309 609q0 -20 -16 -35.5t-36 -15.5q-17 0 -29 12t-12 29q0 20 15.5 35.5t36.5 15.5q17 0 29 -12t12 -29z" />
    <glyph glyph-name="igrave" unicode="&#xec;" horiz-adv-x="225" 
d="M247 556h-57l-137 144h78zM96 0h-75l107 483h75z" />
    <glyph glyph-name="iacute" unicode="&#xed;" horiz-adv-x="225" 
d="M374 700l-201 -144h-59l180 144h80zM96 0h-75l107 483h75z" />
    <glyph glyph-name="icircumflex" unicode="&#xee;" horiz-adv-x="225" 
d="M315 556h-49l-60 106l-103 -106h-53l127 144h72zM96 0h-75l107 483h75z" />
    <glyph glyph-name="idieresis" unicode="&#xef;" horiz-adv-x="225" 
d="M342 609q0 -20 -15.5 -35.5t-36.5 -15.5q-17 0 -29 12t-12 29q0 20 15.5 35.5t36.5 15.5q17 0 29 -12t12 -29zM136 609q0 -20 -16 -35.5t-36 -15.5q-17 0 -29 12t-12 29q0 20 15.5 35.5t36.5 15.5q17 0 29 -12t12 -29zM96 0h-75l107 483h75z" />
    <glyph glyph-name="eth" unicode="&#xf0;" horiz-adv-x="572" 
d="M178 511l-9 41l132 39q-21 19 -65 53l53 57q57 -44 97 -84l117 35l8 -41l-94 -28q116 -137 116 -280q0 -132 -76 -223.5t-193 -91.5q-100 0 -162.5 58t-62.5 148q0 119 73.5 202t176.5 83q53 0 98.5 -26.5t68.5 -79.5q-32 95 -120 185zM265 55q76 0 129.5 63t53.5 152
q0 57 -37.5 99.5t-110.5 42.5q-75 0 -128.5 -61t-53.5 -149q0 -66 39 -106.5t108 -40.5z" />
    <glyph glyph-name="ntilde" unicode="&#xf1;" horiz-adv-x="552" 
d="M425 0h-74l70 317q5 25 5 34q0 77 -100 77q-77 0 -149 -76l-78 -352h-75l107 483h75l-16 -70q84 82 171 82q65 0 104.5 -31t39.5 -88q0 -19 -6 -41zM416 554q-25 0 -42 14.5t-24.5 31.5t-20.5 31.5t-31 14.5q-43 0 -62 -86h-46q27 134 114 134q25 0 42 -14.5t24.5 -31.5
t21 -31.5t31.5 -14.5q42 0 62 86h46q-29 -134 -115 -134z" />
    <glyph glyph-name="ograve" unicode="&#xf2;" horiz-adv-x="572" 
d="M261 -12q-102 0 -161.5 59t-59.5 156q0 117 77.5 204.5t191.5 87.5q102 0 161.5 -59t59.5 -155q0 -118 -77.5 -205.5t-191.5 -87.5zM263 55q80 0 134 67.5t54 155.5q0 69 -38 109.5t-106 40.5q-80 0 -134 -67.5t-54 -155.5q0 -69 38 -109.5t106 -40.5zM421 556h-57
l-137 144h78z" />
    <glyph glyph-name="oacute" unicode="&#xf3;" horiz-adv-x="572" 
d="M261 -12q-102 0 -161.5 59t-59.5 156q0 117 77.5 204.5t191.5 87.5q102 0 161.5 -59t59.5 -155q0 -118 -77.5 -205.5t-191.5 -87.5zM263 55q80 0 134 67.5t54 155.5q0 69 -38 109.5t-106 40.5q-80 0 -134 -67.5t-54 -155.5q0 -69 38 -109.5t106 -40.5zM547 700l-201 -144
h-59l180 144h80z" />
    <glyph glyph-name="ocircumflex" unicode="&#xf4;" horiz-adv-x="572" 
d="M261 -12q-102 0 -161.5 59t-59.5 156q0 117 77.5 204.5t191.5 87.5q102 0 161.5 -59t59.5 -155q0 -118 -77.5 -205.5t-191.5 -87.5zM263 55q80 0 134 67.5t54 155.5q0 69 -38 109.5t-106 40.5q-80 0 -134 -67.5t-54 -155.5q0 -69 38 -109.5t106 -40.5zM489 556h-49
l-60 106l-103 -106h-53l127 144h72z" />
    <glyph glyph-name="otilde" unicode="&#xf5;" horiz-adv-x="572" 
d="M261 -12q-102 0 -161.5 59t-59.5 156q0 117 77.5 204.5t191.5 87.5q102 0 161.5 -59t59.5 -155q0 -118 -77.5 -205.5t-191.5 -87.5zM263 55q80 0 134 67.5t54 155.5q0 69 -38 109.5t-106 40.5q-80 0 -134 -67.5t-54 -155.5q0 -69 38 -109.5t106 -40.5zM426 554
q-25 0 -42 14.5t-24.5 31.5t-20.5 31.5t-31 14.5q-43 0 -62 -86h-46q27 134 114 134q25 0 42 -14.5t24.5 -31.5t21 -31.5t31.5 -14.5q42 0 62 86h46q-29 -134 -115 -134z" />
    <glyph glyph-name="odieresis" unicode="&#xf6;" horiz-adv-x="572" 
d="M261 -12q-102 0 -161.5 59t-59.5 156q0 117 77.5 204.5t191.5 87.5q102 0 161.5 -59t59.5 -155q0 -118 -77.5 -205.5t-191.5 -87.5zM263 55q80 0 134 67.5t54 155.5q0 69 -38 109.5t-106 40.5q-80 0 -134 -67.5t-54 -155.5q0 -69 38 -109.5t106 -40.5zM515 609
q0 -20 -15.5 -35.5t-36.5 -15.5q-17 0 -29 12t-12 29q0 20 15.5 35.5t36.5 15.5q17 0 29 -12t12 -29zM309 609q0 -20 -16 -35.5t-36 -15.5q-17 0 -29 12t-12 29q0 20 15.5 35.5t36.5 15.5q17 0 29 -12t12 -29z" />
    <glyph glyph-name="divide" unicode="&#xf7;" horiz-adv-x="511" 
d="M497 311h-453l11 52h453zM229 99q-17 0 -29.5 12.5t-12.5 29.5q0 20 15 34.5t35 14.5q18 0 30 -12.5t12 -29.5q0 -21 -14.5 -35t-35.5 -14zM313 480q-17 0 -29 12.5t-12 30.5q0 20 14.5 34.5t35.5 14.5q17 0 29.5 -12.5t12.5 -29.5q0 -21 -15 -35.5t-36 -14.5z" />
    <glyph glyph-name="oslash" unicode="&#xf8;" horiz-adv-x="572" 
d="M66 0h-58l71 70q-39 54 -39 133q0 117 77.5 204.5t191.5 87.5q91 0 151 -49l37 37h58l-68 -67q43 -55 43 -135q0 -118 -77.5 -205.5t-191.5 -87.5q-95 0 -155 52zM263 55q80 0 134 67.5t54 155.5q0 48 -20 83l-271 -269q37 -37 103 -37zM119 205q0 -45 17 -79l270 267
q-38 35 -99 35q-80 0 -134 -67.5t-54 -155.5z" />
    <glyph glyph-name="ugrave" unicode="&#xf9;" horiz-adv-x="551" 
d="M128 483h75l-70 -317q-5 -23 -5 -33q0 -78 100 -78q76 0 148 76l78 352h75l-107 -483h-75l16 70q-84 -82 -170 -82q-66 0 -105 31t-39 88q0 13 5 41zM413 556h-57l-137 144h78z" />
    <glyph glyph-name="uacute" unicode="&#xfa;" horiz-adv-x="551" 
d="M128 483h75l-70 -317q-5 -23 -5 -33q0 -78 100 -78q76 0 148 76l78 352h75l-107 -483h-75l16 70q-84 -82 -170 -82q-66 0 -105 31t-39 88q0 13 5 41zM538 700l-201 -144h-59l180 144h80z" />
    <glyph glyph-name="ucircumflex" unicode="&#xfb;" horiz-adv-x="551" 
d="M128 483h75l-70 -317q-5 -23 -5 -33q0 -78 100 -78q76 0 148 76l78 352h75l-107 -483h-75l16 70q-84 -82 -170 -82q-66 0 -105 31t-39 88q0 13 5 41zM478 556h-49l-60 106l-103 -106h-53l127 144h72z" />
    <glyph glyph-name="udieresis" unicode="&#xfc;" horiz-adv-x="551" 
d="M128 483h75l-70 -317q-5 -23 -5 -33q0 -78 100 -78q76 0 148 76l78 352h75l-107 -483h-75l16 70q-84 -82 -170 -82q-66 0 -105 31t-39 88q0 13 5 41zM508 609q0 -20 -15.5 -35.5t-36.5 -15.5q-17 0 -29 12t-12 29q0 20 15.5 35.5t36.5 15.5q17 0 29 -12t12 -29zM302 609
q0 -20 -16 -35.5t-36 -15.5q-17 0 -29 12t-12 29q0 20 15.5 35.5t36.5 15.5q17 0 29 -12t12 -29z" />
    <glyph glyph-name="yacute" unicode="&#xfd;" horiz-adv-x="490" 
d="M-46 -185l26 67q18 -8 48 -8q39 0 71 48l49 75l-92 486h79l72 -396l249 396h84l-372 -581q-61 -98 -150 -98q-37 0 -64 11zM507 700l-201 -144h-59l180 144h80z" />
    <glyph glyph-name="thorn" unicode="&#xfe;" horiz-adv-x="572" 
d="M281 -12q-55 0 -99.5 23.5t-68.5 64.5l-58 -260h-75l188 851h75l-55 -253q65 81 159 81q85 0 136 -53t51 -146q0 -124 -70.5 -216t-182.5 -92zM271 55q80 0 132 68t52 159q0 67 -37 106.5t-98 39.5q-43 0 -82.5 -23.5t-65.5 -58.5l-47 -213q19 -34 57.5 -56t88.5 -22z
" />
    <glyph glyph-name="ydieresis" unicode="&#xff;" horiz-adv-x="490" 
d="M-46 -185l26 67q18 -8 48 -8q39 0 71 48l49 75l-92 486h79l72 -396l249 396h84l-372 -581q-61 -98 -150 -98q-37 0 -64 11zM474 609q0 -20 -15.5 -35.5t-36.5 -15.5q-17 0 -29 12t-12 29q0 20 15.5 35.5t36.5 15.5q17 0 29 -12t12 -29zM268 609q0 -20 -16 -35.5
t-36 -15.5q-17 0 -29 12t-12 29q0 20 15.5 35.5t36.5 15.5q17 0 29 -12t12 -29z" />
    <glyph glyph-name="Amacron" unicode="&#x100;" horiz-adv-x="658" 
d="M595 0h-90l-27 149h-332l-92 -149h-99l416 667h103zM470 222l-62 360l-221 -360h283zM621 749h-362l11 48h362z" />
    <glyph glyph-name="amacron" unicode="&#x101;" horiz-adv-x="575" 
d="M293 495q55 0 99.5 -23.5t68.5 -64.5l17 76h75l-107 -483h-75l15 69q-65 -81 -159 -81q-84 0 -135.5 53t-51.5 146q0 124 70.5 216t182.5 92zM303 428q-80 0 -132 -68t-52 -159q0 -67 37 -106.5t98 -39.5q43 0 82.5 23.5t65.5 58.5l47 213q-19 34 -57.5 56t-88.5 22z
M525 578h-362l11 48h362z" />
    <glyph glyph-name="Abreve" unicode="&#x102;" horiz-adv-x="658" 
d="M595 0h-90l-27 149h-332l-92 -149h-99l416 667h103zM470 222l-62 360l-221 -360h283zM629 810q-85 -88 -194 -88q-53 0 -94 23.5t-63 64.5l42 32q36 -72 123 -72q88 0 154 72z" />
    <glyph glyph-name="abreve" unicode="&#x103;" horiz-adv-x="575" 
d="M293 495q55 0 99.5 -23.5t68.5 -64.5l17 76h75l-107 -483h-75l15 69q-65 -81 -159 -81q-84 0 -135.5 53t-51.5 146q0 124 70.5 216t182.5 92zM303 428q-80 0 -132 -68t-52 -159q0 -67 37 -106.5t98 -39.5q43 0 82.5 23.5t65.5 58.5l47 213q-19 34 -57.5 56t-88.5 22z
M536 651q-85 -88 -194 -88q-53 0 -94 23.5t-63 64.5l42 32q36 -72 123 -72q88 0 154 72z" />
    <glyph glyph-name="Aogonek" unicode="&#x104;" horiz-adv-x="658" 
d="M591 -106l32 -24q-36 -56 -91 -56q-36 0 -59 19t-23 53q0 68 70 114h-15l-27 149h-332l-92 -149h-99l416 667h103l121 -667q-102 -44 -102 -107q0 -40 43 -40q34 0 55 41zM470 222l-62 360l-221 -360h283z" />
    <glyph glyph-name="aogonek" unicode="&#x105;" horiz-adv-x="575" 
d="M442 -106l32 -24q-36 -56 -91 -56q-36 0 -59 19t-23 53q0 68 70 114l15 69q-65 -81 -159 -81q-84 0 -135.5 53t-51.5 146q0 124 70.5 216t182.5 92q55 0 99.5 -23.5t68.5 -64.5l17 76h75l-107 -483q-102 -44 -102 -107q0 -40 43 -40q35 0 55 41zM303 428q-80 0 -132 -68
t-52 -159q0 -67 37 -106.5t98 -39.5q43 0 82.5 23.5t65.5 58.5l47 213q-19 34 -57.5 56t-88.5 22z" />
    <glyph glyph-name="Cacute" unicode="&#x106;" horiz-adv-x="676" 
d="M368 -12q-134 0 -221 80.5t-87 211.5q0 88 31.5 163.5t83.5 126.5t120 79.5t140 28.5q97 0 167 -42t106 -115l-80 -31q-28 57 -80 85.5t-117 28.5q-113 0 -198 -90t-85 -230q0 -99 61 -160.5t164 -61.5q99 0 179 77l62 -47q-100 -104 -246 -104zM693 872l-201 -144h-59
l180 144h80z" />
    <glyph glyph-name="cacute" unicode="&#x107;" horiz-adv-x="496" 
d="M262 -12q-99 0 -160.5 58t-61.5 158q0 120 79.5 205.5t192.5 85.5q127 0 181 -90l-57 -43q-38 66 -122 66q-88 0 -142 -66t-54 -157q0 -72 42.5 -111t108.5 -39q74 0 123 58l42 -51q-72 -74 -172 -74zM554 700l-201 -144h-59l180 144h80z" />
    <glyph glyph-name="Ccircumflex" unicode="&#x108;" horiz-adv-x="676" 
d="M368 -12q-134 0 -221 80.5t-87 211.5q0 88 31.5 163.5t83.5 126.5t120 79.5t140 28.5q97 0 167 -42t106 -115l-80 -31q-28 57 -80 85.5t-117 28.5q-113 0 -198 -90t-85 -230q0 -99 61 -160.5t164 -61.5q99 0 179 77l62 -47q-100 -104 -246 -104zM634 728h-49l-60 106
l-103 -106h-53l127 144h72z" />
    <glyph glyph-name="ccircumflex" unicode="&#x109;" horiz-adv-x="496" 
d="M262 -12q-99 0 -160.5 58t-61.5 158q0 120 79.5 205.5t192.5 85.5q127 0 181 -90l-57 -43q-38 66 -122 66q-88 0 -142 -66t-54 -157q0 -72 42.5 -111t108.5 -39q74 0 123 58l42 -51q-72 -74 -172 -74zM494 556h-49l-60 106l-103 -106h-53l127 144h72z" />
    <glyph glyph-name="Cdotaccent" unicode="&#x10a;" horiz-adv-x="676" 
d="M368 -12q-134 0 -221 80.5t-87 211.5q0 88 31.5 163.5t83.5 126.5t120 79.5t140 28.5q97 0 167 -42t106 -115l-80 -31q-28 57 -80 85.5t-117 28.5q-113 0 -198 -90t-85 -230q0 -99 61 -160.5t164 -61.5q99 0 179 77l62 -47q-100 -104 -246 -104zM560 779q0 -21 -16 -37
t-36 -16q-18 0 -30 12t-12 30q0 21 15.5 36.5t36.5 15.5q18 0 30 -11.5t12 -29.5z" />
    <glyph glyph-name="cdotaccent" unicode="&#x10b;" horiz-adv-x="496" 
d="M262 -12q-99 0 -160.5 58t-61.5 158q0 120 79.5 205.5t192.5 85.5q127 0 181 -90l-57 -43q-38 66 -122 66q-88 0 -142 -66t-54 -157q0 -72 42.5 -111t108.5 -39q74 0 123 58l42 -51q-72 -74 -172 -74zM420 625q0 -21 -16 -37t-36 -16q-18 0 -30 12t-12 30q0 21 15.5 36.5
t36.5 15.5q18 0 30 -11.5t12 -29.5z" />
    <glyph glyph-name="Ccaron" unicode="&#x10c;" horiz-adv-x="676" 
d="M368 -12q-134 0 -221 80.5t-87 211.5q0 88 31.5 163.5t83.5 126.5t120 79.5t140 28.5q97 0 167 -42t106 -115l-80 -31q-28 57 -80 85.5t-117 28.5q-113 0 -198 -90t-85 -230q0 -99 61 -160.5t164 -61.5q99 0 179 77l62 -47q-100 -104 -246 -104zM539 728h-72l-66 144h49
l59 -106l104 106h53z" />
    <glyph glyph-name="ccaron" unicode="&#x10d;" horiz-adv-x="496" 
d="M262 -12q-99 0 -160.5 58t-61.5 158q0 120 79.5 205.5t192.5 85.5q127 0 181 -90l-57 -43q-38 66 -122 66q-88 0 -142 -66t-54 -157q0 -72 42.5 -111t108.5 -39q74 0 123 58l42 -51q-72 -74 -172 -74zM399 556h-72l-66 144h49l59 -106l104 106h53z" />
    <glyph glyph-name="Dcaron" unicode="&#x10e;" horiz-adv-x="700" 
d="M251 0h-227l147 667h223q114 0 195.5 -81t81.5 -204q0 -70 -25.5 -136.5t-75 -122t-132.5 -89.5t-187 -34zM238 593l-115 -519h142q143 0 231 88.5t88 215.5q0 93 -58.5 154t-147.5 61h-140zM496 728h-72l-66 144h49l59 -106l104 106h53z" />
    <glyph glyph-name="dcaron" unicode="&#x10f;" horiz-adv-x="644" 
d="M293 495q55 0 99.5 -23.5t68.5 -64.5l58 260h75l-148 -667h-75l15 69q-65 -81 -159 -81q-84 0 -135.5 53t-51.5 146q0 124 70.5 216t182.5 92zM303 428q-80 0 -132 -68t-52 -159q0 -67 37 -106.5t98 -39.5q43 0 82.5 23.5t65.5 58.5l47 213q-19 34 -57.5 56t-88.5 22z
M729 630q0 -41 -30 -82t-72 -63l-27 28q26 13 47.5 34.5t28.5 43.5q-1 -1 -7 -1q-15 0 -25.5 11t-10.5 28q0 21 15.5 36t35.5 15t32.5 -13t12.5 -37z" />
    <glyph glyph-name="Dcroat" unicode="&#x110;" horiz-adv-x="728" 
d="M279 0h-227l66 300h-96l16 68h95l66 299h223q114 0 195.5 -81t81.5 -204q0 -70 -25.5 -136.5t-75 -122t-132.5 -89.5t-187 -34zM370 300h-169l-50 -226h142q143 0 231 88.5t88 215.5q0 93 -58.5 154t-147.5 61h-140l-50 -225h169z" />
    <glyph glyph-name="dcroat" unicode="&#x111;" horiz-adv-x="579" 
d="M293 495q55 0 99.5 -23.5t68.5 -64.5l28 128h-168l9 48h170l19 84h75l-19 -84h53l-9 -48h-55l-118 -535h-75l15 69q-65 -81 -159 -81q-84 0 -135.5 53t-51.5 146q0 124 70.5 216t182.5 92zM303 428q-80 0 -132 -68t-52 -159q0 -67 37 -106.5t98 -39.5q43 0 82.5 23.5
t65.5 58.5l47 213q-19 34 -57.5 56t-88.5 22z" />
    <glyph glyph-name="Emacron" unicode="&#x112;" horiz-adv-x="569" 
d="M461 0h-437l147 667h437l-16 -74h-354l-48 -215h348l-17 -74h-347l-51 -230h354zM586 749h-362l11 48h362z" />
    <glyph glyph-name="emacron" unicode="&#x113;" horiz-adv-x="563" 
d="M276 -12q-109 0 -172.5 58.5t-63.5 155.5q0 121 79 207t193 86q95 0 151.5 -59t56.5 -152q0 -30 -8 -67h-393q-2 -8 -2 -23q0 -60 43 -102t121 -42q81 0 139 48l26 -53q-76 -57 -170 -57zM448 273h3q0 2 0.5 8.5t0.5 9.5q0 63 -38.5 102.5t-108.5 39.5q-65 0 -116 -47.5
t-63 -112.5h322zM537 578h-362l11 48h362z" />
    <glyph glyph-name="Ebreve" unicode="&#x114;" horiz-adv-x="569" 
d="M461 0h-437l147 667h437l-16 -74h-354l-48 -215h348l-17 -74h-347l-51 -230h354zM594 810q-85 -88 -194 -88q-53 0 -94 23.5t-63 64.5l42 32q36 -72 123 -72q88 0 154 72z" />
    <glyph glyph-name="ebreve" unicode="&#x115;" horiz-adv-x="563" 
d="M276 -12q-109 0 -172.5 58.5t-63.5 155.5q0 121 79 207t193 86q95 0 151.5 -59t56.5 -152q0 -30 -8 -67h-393q-2 -8 -2 -23q0 -60 43 -102t121 -42q81 0 139 48l26 -53q-76 -57 -170 -57zM448 273h3q0 2 0.5 8.5t0.5 9.5q0 63 -38.5 102.5t-108.5 39.5q-65 0 -116 -47.5
t-63 -112.5h322zM553 651q-85 -88 -194 -88q-53 0 -94 23.5t-63 64.5l42 32q36 -72 123 -72q88 0 154 72z" />
    <glyph glyph-name="Edotaccent" unicode="&#x116;" horiz-adv-x="569" 
d="M461 0h-437l147 667h437l-16 -74h-354l-48 -215h348l-17 -74h-347l-51 -230h354zM465 779q0 -21 -15.5 -37t-36.5 -16q-18 0 -30 12t-12 30q0 21 15.5 36.5t36.5 15.5q18 0 30 -11.5t12 -29.5z" />
    <glyph glyph-name="edotaccent" unicode="&#x117;" horiz-adv-x="563" 
d="M276 -12q-109 0 -172.5 58.5t-63.5 155.5q0 121 79 207t193 86q95 0 151.5 -59t56.5 -152q0 -30 -8 -67h-393q-2 -8 -2 -23q0 -60 43 -102t121 -42q81 0 139 48l26 -53q-76 -57 -170 -57zM448 273h3q0 2 0.5 8.5t0.5 9.5q0 63 -38.5 102.5t-108.5 39.5q-65 0 -116 -47.5
t-63 -112.5h322zM416 625q0 -21 -16 -37t-36 -16q-18 0 -30 12t-12 30q0 21 15.5 36.5t36.5 15.5q18 0 30 -11.5t12 -29.5z" />
    <glyph glyph-name="Eogonek" unicode="&#x118;" horiz-adv-x="569" 
d="M457 -106l32 -24q-36 -56 -91 -56q-36 0 -59 19t-23 53q0 68 70 114h-362l147 667h437l-16 -74h-354l-48 -215h348l-17 -74h-347l-51 -230h354l-16 -74q-102 -44 -102 -107q0 -40 43 -40q34 0 55 41z" />
    <glyph glyph-name="eogonek" unicode="&#x119;" horiz-adv-x="563" 
d="M351 -106l32 -24q-36 -56 -91 -56q-36 0 -59 19t-23 53q0 59 54 102q-104 4 -164 62t-60 152q0 121 79 207t193 86q95 0 151.5 -59t56.5 -152q0 -30 -8 -67h-393q-2 -8 -2 -23q0 -60 43 -102t121 -42q81 0 139 48l26 -53q-39 -30 -91 -45q-102 -44 -102 -107
q0 -40 43 -40q34 0 55 41zM451 273q0 2 0.5 8.5t0.5 9.5q0 63 -38.5 102.5t-108.5 39.5q-65 0 -116 -47.5t-63 -112.5h325z" />
    <glyph glyph-name="Ecaron" unicode="&#x11a;" horiz-adv-x="569" 
d="M461 0h-437l147 667h437l-16 -74h-354l-48 -215h348l-17 -74h-347l-51 -230h354zM442 728h-72l-66 144h49l59 -106l104 106h53z" />
    <glyph glyph-name="ecaron" unicode="&#x11b;" horiz-adv-x="563" 
d="M276 -12q-109 0 -172.5 58.5t-63.5 155.5q0 121 79 207t193 86q95 0 151.5 -59t56.5 -152q0 -30 -8 -67h-393q-2 -8 -2 -23q0 -60 43 -102t121 -42q81 0 139 48l26 -53q-76 -57 -170 -57zM448 273h3q0 2 0.5 8.5t0.5 9.5q0 63 -38.5 102.5t-108.5 39.5q-65 0 -116 -47.5
t-63 -112.5h322zM392 556h-72l-66 144h49l59 -106l104 106h53z" />
    <glyph glyph-name="Gcircumflex" unicode="&#x11c;" horiz-adv-x="713" 
d="M368 -12q-137 0 -222.5 81t-85.5 211q0 171 111 284.5t270 113.5q91 0 159 -40t104 -106l-75 -34q-26 50 -79 78t-119 28q-114 0 -198.5 -92t-84.5 -228q0 -100 61.5 -161t163.5 -61q95 0 176 71l30 136h-230l16 74h313l-54 -244q-108 -111 -256 -111zM638 728h-49
l-60 106l-103 -106h-53l127 144h72z" />
    <glyph glyph-name="gcircumflex" unicode="&#x11d;" horiz-adv-x="575" 
d="M212 -196q-148 0 -216 82l47 51q49 -71 167 -71q128 0 163 150l14 61q-64 -81 -164 -81q-81 0 -132.5 50.5t-51.5 148.5q0 121 70 210.5t182 89.5q48 0 95 -24.5t74 -63.5l17 76h76l-105 -467q-47 -212 -236 -212zM253 62q40 0 80 22t68 56l46 208q-20 37 -61 58.5
t-89 21.5q-79 0 -129 -66.5t-50 -154.5q0 -67 36.5 -106t98.5 -39zM492 549h-49l-60 106l-103 -106h-53l127 144h72z" />
    <glyph glyph-name="Gbreve" unicode="&#x11e;" horiz-adv-x="713" 
d="M368 -12q-137 0 -222.5 81t-85.5 211q0 171 111 284.5t270 113.5q91 0 159 -40t104 -106l-75 -34q-26 50 -79 78t-119 28q-114 0 -198.5 -92t-84.5 -228q0 -100 61.5 -161t163.5 -61q95 0 176 71l30 136h-230l16 74h313l-54 -244q-108 -111 -256 -111zM697 810
q-85 -88 -194 -88q-53 0 -94 23.5t-63 64.5l42 32q36 -72 123 -72q88 0 154 72z" />
    <glyph glyph-name="gbreve" unicode="&#x11f;" horiz-adv-x="575" 
d="M212 -196q-148 0 -216 82l47 51q49 -71 167 -71q128 0 163 150l14 61q-64 -81 -164 -81q-81 0 -132.5 50.5t-51.5 148.5q0 121 70 210.5t182 89.5q48 0 95 -24.5t74 -63.5l17 76h76l-105 -467q-47 -212 -236 -212zM253 62q40 0 80 22t68 56l46 208q-20 37 -61 58.5
t-89 21.5q-79 0 -129 -66.5t-50 -154.5q0 -67 36.5 -106t98.5 -39zM551 651q-85 -88 -194 -88q-53 0 -94 23.5t-63 64.5l42 32q36 -72 123 -72q88 0 154 72z" />
    <glyph glyph-name="Gdotaccent" unicode="&#x120;" horiz-adv-x="713" 
d="M368 -12q-137 0 -222.5 81t-85.5 211q0 171 111 284.5t270 113.5q91 0 159 -40t104 -106l-75 -34q-26 50 -79 78t-119 28q-114 0 -198.5 -92t-84.5 -228q0 -100 61.5 -161t163.5 -61q95 0 176 71l30 136h-230l16 74h313l-54 -244q-108 -111 -256 -111zM560 779
q0 -21 -16 -37t-36 -16q-18 0 -30 12t-12 30q0 21 15.5 36.5t36.5 15.5q18 0 30 -11.5t12 -29.5z" />
    <glyph glyph-name="gdotaccent" unicode="&#x121;" horiz-adv-x="575" 
d="M212 -196q-148 0 -216 82l47 51q49 -71 167 -71q128 0 163 150l14 61q-64 -81 -164 -81q-81 0 -132.5 50.5t-51.5 148.5q0 121 70 210.5t182 89.5q48 0 95 -24.5t74 -63.5l17 76h76l-105 -467q-47 -212 -236 -212zM253 62q40 0 80 22t68 56l46 208q-20 37 -61 58.5
t-89 21.5q-79 0 -129 -66.5t-50 -154.5q0 -67 36.5 -106t98.5 -39zM419 625q0 -21 -15.5 -37t-36.5 -16q-18 0 -30 12t-12 30q0 21 15.5 36.5t36.5 15.5q18 0 30 -11.5t12 -29.5z" />
    <glyph glyph-name="Gcommaaccent" unicode="&#x122;" horiz-adv-x="713" 
d="M368 -12q-137 0 -222.5 81t-85.5 211q0 171 111 284.5t270 113.5q91 0 159 -40t104 -106l-75 -34q-26 50 -79 78t-119 28q-114 0 -198.5 -92t-84.5 -228q0 -100 61.5 -161t163.5 -61q95 0 176 71l30 136h-230l16 74h313l-54 -244q-108 -111 -256 -111zM365 -121
q0 -41 -30 -82t-72 -63l-27 28q26 13 47.5 34.5t28.5 43.5q-1 -1 -7 -1q-15 0 -25.5 11t-10.5 28q0 21 15.5 36t35.5 15t32.5 -13t12.5 -37z" />
    <glyph glyph-name="gcommaaccent" unicode="&#x123;" horiz-adv-x="575" 
d="M313 610q0 42 30 83t73 63l26 -28q-26 -13 -47.5 -34.5t-28.5 -43.5h7q15 0 26 -11t11 -28q0 -21 -15.5 -36t-36.5 -15q-20 0 -32.5 13t-12.5 37zM212 -196q-148 0 -216 82l47 51q49 -71 167 -71q128 0 163 150l14 61q-64 -81 -164 -81q-81 0 -132.5 50.5t-51.5 148.5
q0 121 70 210.5t182 89.5q48 0 95 -24.5t74 -63.5l17 76h76l-105 -467q-47 -212 -236 -212zM253 62q40 0 80 22t68 56l46 208q-20 37 -61 58.5t-89 21.5q-79 0 -129 -66.5t-50 -154.5q0 -67 36.5 -106t98.5 -39z" />
    <glyph glyph-name="Hcircumflex" unicode="&#x124;" horiz-adv-x="712" 
d="M580 0h-83l67 306h-390l-67 -306h-83l147 667h83l-63 -287h390l63 287h83zM593 728h-49l-60 106l-103 -106h-53l127 144h72z" />
    <glyph glyph-name="hcircumflex" unicode="&#x125;" horiz-adv-x="552" 
d="M423 0h-75l70 318q5 20 5 33q0 77 -100 77q-75 0 -149 -76l-77 -352h-75l147 667h74l-56 -254q84 82 171 82q65 0 104.5 -31t39.5 -88q0 -21 -6 -41zM354 728h-49l-60 106l-103 -106h-53l127 144h72z" />
    <glyph glyph-name="Hbar" unicode="&#x126;" horiz-adv-x="731" 
d="M590 0h-83l67 306h-390l-67 -306h-83l110 501h-76l10 48h77l26 118h83l-26 -118h390l26 118h83l-26 -118h75l-10 -48h-76zM201 380h390l26 121h-390z" />
    <glyph glyph-name="hbar" unicode="&#x127;" horiz-adv-x="555" 
d="M426 0h-75l70 318q5 20 5 33q0 77 -100 77q-75 0 -149 -76l-77 -352h-75l118 535h-69l11 48h68l19 84h74l-19 -84h157l-11 -48h-156l-27 -122q84 82 171 82q65 0 104.5 -31t39.5 -88q0 -21 -6 -41z" />
    <glyph glyph-name="Itilde" unicode="&#x128;" horiz-adv-x="239" 
d="M107 0h-83l147 667h83zM297 726q-25 0 -42 14.5t-24.5 31.5t-20.5 31.5t-31 14.5q-43 0 -62 -86h-46q27 134 114 134q25 0 42 -14.5t24.5 -31.5t21 -31.5t31.5 -14.5q42 0 62 86h46q-29 -134 -115 -134z" />
    <glyph glyph-name="itilde" unicode="&#x129;" horiz-adv-x="225" 
d="M96 0h-75l107 483h75zM252 541q-25 0 -42 14.5t-24.5 31.5t-20.5 31.5t-31 14.5q-43 0 -62 -86h-46q27 134 114 134q25 0 42 -14.5t24.5 -31.5t21 -31.5t31.5 -14.5q42 0 62 86h46q-29 -134 -115 -134z" />
    <glyph glyph-name="Imacron" unicode="&#x12a;" horiz-adv-x="239" 
d="M107 0h-83l147 667h83zM412 749h-362l11 48h362z" />
    <glyph glyph-name="imacron" unicode="&#x12b;" horiz-adv-x="225" 
d="M96 0h-75l107 483h75zM368 578h-362l11 48h362z" />
    <glyph glyph-name="Ibreve" unicode="&#x12c;" horiz-adv-x="239" 
d="M107 0h-83l147 667h83zM421 810q-85 -88 -194 -88q-53 0 -94 23.5t-63 64.5l42 32q36 -72 123 -72q88 0 154 72z" />
    <glyph glyph-name="ibreve" unicode="&#x12d;" horiz-adv-x="225" 
d="M96 0h-75l107 483h75zM382 651q-85 -88 -194 -88q-53 0 -94 23.5t-63 64.5l42 32q36 -72 123 -72q88 0 154 72z" />
    <glyph glyph-name="Iogonek" unicode="&#x12e;" horiz-adv-x="239" 
d="M103 -106l32 -24q-36 -56 -91 -56q-36 0 -59 19t-23 53q0 67 70 114h-8l147 667h83l-147 -667q-102 -44 -102 -107q0 -40 43 -40q34 0 55 41z" />
    <glyph glyph-name="iogonek" unicode="&#x12f;" horiz-adv-x="225" 
d="M92 -106l32 -24q-36 -56 -91 -56q-36 0 -59 19t-23 53q0 67 70 114l107 483h75l-107 -483q-102 -44 -102 -107q0 -40 43 -40q35 0 55 41zM186 552q-20 0 -33 13t-13 31q0 25 18 41t39 16q19 0 32.5 -13t13.5 -31q0 -25 -18 -41t-39 -16z" />
    <glyph glyph-name="Idotaccent" unicode="&#x130;" horiz-adv-x="239" 
d="M107 0h-83l147 667h83zM284 779q0 -21 -16 -37t-36 -16q-18 0 -30 12t-12 30q0 21 15.5 36.5t36.5 15.5q18 0 30 -11.5t12 -29.5z" />
    <glyph glyph-name="dotlessi" unicode="&#x131;" horiz-adv-x="225" 
d="M96 0h-75l107 483h75z" />
    <glyph glyph-name="IJ" unicode="&#x132;" horiz-adv-x="714" 
d="M107 0h-83l147 667h83zM397 -12q-58 0 -106 21.5t-74 62.5l50 60q39 -70 126 -70q60 0 98 37.5t53 102.5l102 465h83l-103 -466q-47 -213 -229 -213z" />
    <glyph glyph-name="ij" unicode="&#x133;" horiz-adv-x="451" 
d="M186 552q-20 0 -33 13t-13 31q0 25 18 41t39 16q19 0 32.5 -13t13.5 -31q0 -25 -18 -41t-39 -16zM96 0h-75l107 483h75zM157 -196q-79 0 -115 42l37 53q26 -33 68 -33q70 0 89 87l117 530h75l-117 -530q-17 -74 -54 -111.5t-100 -37.5zM411 552q-20 0 -33 13t-13 31
q0 25 18 41t39 16q19 0 32.5 -13t13.5 -31q0 -25 -18 -41t-39 -16z" />
    <glyph glyph-name="Jcircumflex" unicode="&#x134;" horiz-adv-x="475" 
d="M158 -12q-58 0 -106 21.5t-74 62.5l50 60q39 -70 126 -70q60 0 98 37.5t53 102.5l102 465h83l-103 -466q-47 -213 -229 -213zM596 728h-49l-60 106l-103 -106h-53l127 144h72z" />
    <glyph glyph-name="jcircumflex" unicode="&#x135;" horiz-adv-x="225" 
d="M-68 -196q-79 0 -115 42l38 58q26 -33 68 -33q69 0 88 82l117 530h75l-117 -530q-17 -74 -54 -111.5t-100 -37.5zM316 556h-49l-60 106l-103 -106h-53l127 144h72z" />
    <glyph glyph-name="Kcommaaccent" unicode="&#x136;" horiz-adv-x="606" 
d="M531 0h-98l-190 304l-87 -80l-49 -224h-83l147 667h83l-75 -337l365 337h109l-348 -316zM276 -121q0 -41 -30 -82t-72 -63l-27 28q26 13 47.5 34.5t28.5 43.5q-1 -1 -7 -1q-15 0 -25.5 11t-10.5 28q0 21 15.5 36t35.5 15t32.5 -13t12.5 -37z" />
    <glyph glyph-name="kcommaaccent" unicode="&#x137;" horiz-adv-x="514" 
d="M446 0h-90l-128 220l-101 -82l-31 -138h-75l147 667h75l-96 -436l306 252h99l-263 -219zM230 -121q0 -41 -30 -82t-72 -63l-27 28q26 13 47.5 34.5t28.5 43.5q-1 -1 -7 -1q-15 0 -25.5 11t-10.5 28q0 21 15.5 36t35.5 15t32.5 -13t12.5 -37z" />
    <glyph glyph-name="kgreenlandic" unicode="&#x138;" horiz-adv-x="514" 
d="M446 0h-90l-128 220l-101 -82l-31 -138h-75l107 483h75l-56 -252l306 252h99l-263 -219z" />
    <glyph glyph-name="Lacute" unicode="&#x139;" horiz-adv-x="493" 
d="M406 0h-393l147 667h83l-131 -593h310zM524 872l-201 -144h-59l180 144h80z" />
    <glyph glyph-name="lacute" unicode="&#x13a;" horiz-adv-x="225" 
d="M96 0h-75l147 667h75zM412 872l-201 -144h-59l180 144h80z" />
    <glyph glyph-name="Lcommaaccent" unicode="&#x13b;" horiz-adv-x="493" 
d="M406 0h-393l147 667h83l-131 -593h310zM218 -121q0 -41 -30 -82t-72 -63l-27 28q26 13 47.5 34.5t28.5 43.5q-1 -1 -7 -1q-15 0 -25.5 11t-10.5 28q0 21 15.5 36t35.5 15t32.5 -13t12.5 -37z" />
    <glyph glyph-name="lcommaaccent" unicode="&#x13c;" horiz-adv-x="225" 
d="M96 0h-75l147 667h75zM86 -121q0 -41 -30 -82t-72 -63l-27 28q26 13 47.5 34.5t28.5 43.5q-1 -1 -7 -1q-15 0 -25.5 11t-10.5 28q0 21 15.5 36t35.5 15t32.5 -13t12.5 -37z" />
    <glyph glyph-name="Lcaron" unicode="&#x13d;" horiz-adv-x="493" 
d="M406 0h-393l147 667h83l-131 -593h310zM424 630q0 -41 -30 -82t-72 -63l-27 28q26 13 47.5 34.5t28.5 43.5q-1 -1 -7 -1q-15 0 -25.5 11t-10.5 28q0 21 15.5 36t35.5 15t32.5 -13t12.5 -37z" />
    <glyph glyph-name="lcaron" unicode="&#x13e;" horiz-adv-x="291" 
d="M96 0h-75l147 667h75zM393 630q0 -41 -30 -82t-72 -63l-27 28q26 13 47.5 34.5t28.5 43.5q-1 -1 -7 -1q-15 0 -25.5 11t-10.5 28q0 21 15.5 36t35.5 15t32.5 -13t12.5 -37z" />
    <glyph glyph-name="Ldot" unicode="&#x13f;" horiz-adv-x="512" 
d="M406 0h-393l147 667h83l-131 -593h310zM384 287q-21 0 -35.5 14.5t-14.5 35.5q0 25 17.5 42.5t42.5 17.5q21 0 35.5 -15t14.5 -36q0 -25 -17.5 -42t-42.5 -17z" />
    <glyph glyph-name="ldot" unicode="&#x140;" horiz-adv-x="307" 
d="M96 0h-75l147 667h75zM261 190q-21 0 -35.5 14.5t-14.5 35.5q0 25 17.5 42.5t42.5 17.5q21 0 35.5 -15t14.5 -36q0 -25 -17.5 -42t-42.5 -17z" />
    <glyph glyph-name="Lslash" unicode="&#x141;" horiz-adv-x="524" 
d="M5 221l16 72l99 51l71 323h83l-61 -276l108 56l-15 -72l-109 -56l-54 -245h310l-16 -74h-393l60 271z" />
    <glyph glyph-name="lslash" unicode="&#x142;" horiz-adv-x="287" 
d="M6 228l14 60l107 54l72 325h75l-62 -282l108 55l-14 -60l-107 -55l-72 -325h-75l62 283z" />
    <glyph glyph-name="Nacute" unicode="&#x143;" horiz-adv-x="708" 
d="M576 0h-80l-270 537l-119 -537h-83l147 667h85l267 -526l117 526h83zM652 872l-201 -144h-59l180 144h80z" />
    <glyph glyph-name="nacute" unicode="&#x144;" horiz-adv-x="552" 
d="M425 0h-74l70 317q5 25 5 34q0 77 -100 77q-77 0 -149 -76l-78 -352h-75l107 483h75l-16 -70q84 82 171 82q65 0 104.5 -31t39.5 -88q0 -19 -6 -41zM537 700l-201 -144h-59l180 144h80z" />
    <glyph glyph-name="Ncommaaccent" unicode="&#x145;" horiz-adv-x="708" 
d="M576 0h-80l-270 537l-119 -537h-83l147 667h85l267 -526l117 526h83zM327 -121q0 -41 -30 -82t-72 -63l-27 28q26 13 47.5 34.5t28.5 43.5q-1 -1 -7 -1q-15 0 -25.5 11t-10.5 28q0 21 15.5 36t35.5 15t32.5 -13t12.5 -37z" />
    <glyph glyph-name="ncommaaccent" unicode="&#x146;" horiz-adv-x="552" 
d="M425 0h-74l70 317q5 25 5 34q0 77 -100 77q-77 0 -149 -76l-78 -352h-75l107 483h75l-16 -70q84 82 171 82q65 0 104.5 -31t39.5 -88q0 -19 -6 -41zM249 -121q0 -41 -30 -82t-72 -63l-27 28q26 13 47.5 34.5t28.5 43.5q-1 -1 -7 -1q-15 0 -25.5 11t-10.5 28q0 21 15.5 36
t35.5 15t32.5 -13t12.5 -37z" />
    <glyph glyph-name="Ncaron" unicode="&#x147;" horiz-adv-x="708" 
d="M576 0h-80l-270 537l-119 -537h-83l147 667h85l267 -526l117 526h83zM498 728h-72l-66 144h49l59 -106l104 106h53z" />
    <glyph glyph-name="ncaron" unicode="&#x148;" horiz-adv-x="552" 
d="M425 0h-74l70 317q5 25 5 34q0 77 -100 77q-77 0 -149 -76l-78 -352h-75l107 483h75l-16 -70q84 82 171 82q65 0 104.5 -31t39.5 -88q0 -19 -6 -41zM382 556h-72l-66 144h49l59 -106l104 106h53z" />
    <glyph glyph-name="napostrophe" unicode="&#x149;" horiz-adv-x="552" 
d="M425 0h-74l70 317q5 25 5 34q0 77 -100 77q-77 0 -149 -76l-78 -352h-75l107 483h75l-16 -70q84 82 171 82q65 0 104.5 -31t39.5 -88q0 -19 -6 -41zM256 693q0 -41 -30 -82t-72 -63l-27 28q26 13 47.5 34.5t28.5 43.5q-1 -1 -7 -1q-15 0 -25.5 11t-10.5 28q0 21 15.5 36
t35.5 15t32.5 -13t12.5 -37z" />
    <glyph glyph-name="Eng" unicode="&#x14a;" horiz-adv-x="708" 
d="M351 -196q-126 0 -181 84l49 54q37 -69 126 -69q115 0 149 131l-268 533l-119 -537h-83l147 667h85l267 -526l117 526h83l-144 -654q-46 -209 -228 -209z" />
    <glyph glyph-name="eng" unicode="&#x14b;" horiz-adv-x="552" 
d="M259 -196q-78 0 -116 42l38 58q28 -33 68 -33q69 0 88 82l13 60h1l67 304q5 32 5 34q0 40 -27.5 58.5t-72.5 18.5q-77 0 -149 -76l-78 -352h-75l107 483h75l-16 -70q84 82 171 82q64 0 104 -30.5t40 -89.5q0 -12 -6 -40l-72 -329h-1l-11 -53q-34 -149 -153 -149z" />
    <glyph glyph-name="Omacron" unicode="&#x14c;" horiz-adv-x="765" 
d="M368 -12q-133 0 -220.5 78.5t-87.5 213.5q0 167 109 282.5t266 115.5q133 0 220.5 -78t87.5 -213q0 -168 -109 -283.5t-266 -115.5zM373 62q116 0 199 91.5t83 228.5q0 104 -64 163t-161 59q-117 0 -199.5 -91.5t-82.5 -228.5q0 -104 64 -163t161 -59zM674 749h-362
l11 48h362z" />
    <glyph glyph-name="omacron" unicode="&#x14d;" horiz-adv-x="572" 
d="M261 -12q-102 0 -161.5 59t-59.5 156q0 117 77.5 204.5t191.5 87.5q102 0 161.5 -59t59.5 -155q0 -118 -77.5 -205.5t-191.5 -87.5zM263 55q80 0 134 67.5t54 155.5q0 69 -38 109.5t-106 40.5q-80 0 -134 -67.5t-54 -155.5q0 -69 38 -109.5t106 -40.5zM541 578h-362
l11 48h362z" />
    <glyph glyph-name="Obreve" unicode="&#x14e;" horiz-adv-x="765" 
d="M368 -12q-133 0 -220.5 78.5t-87.5 213.5q0 167 109 282.5t266 115.5q133 0 220.5 -78t87.5 -213q0 -168 -109 -283.5t-266 -115.5zM373 62q116 0 199 91.5t83 228.5q0 104 -64 163t-161 59q-117 0 -199.5 -91.5t-82.5 -228.5q0 -104 64 -163t161 -59zM681 810
q-85 -88 -194 -88q-53 0 -94 23.5t-63 64.5l42 32q36 -72 123 -72q88 0 154 72z" />
    <glyph glyph-name="obreve" unicode="&#x14f;" horiz-adv-x="572" 
d="M261 -12q-102 0 -161.5 59t-59.5 156q0 117 77.5 204.5t191.5 87.5q102 0 161.5 -59t59.5 -155q0 -118 -77.5 -205.5t-191.5 -87.5zM263 55q80 0 134 67.5t54 155.5q0 69 -38 109.5t-106 40.5q-80 0 -134 -67.5t-54 -155.5q0 -69 38 -109.5t106 -40.5zM552 651
q-85 -88 -194 -88q-53 0 -94 23.5t-63 64.5l42 32q36 -72 123 -72q88 0 154 72z" />
    <glyph glyph-name="Ohungarumlaut" unicode="&#x150;" horiz-adv-x="765" 
d="M368 -12q-133 0 -220.5 78.5t-87.5 213.5q0 167 109 282.5t266 115.5q133 0 220.5 -78t87.5 -213q0 -168 -109 -283.5t-266 -115.5zM373 62q116 0 199 91.5t83 228.5q0 104 -64 163t-161 59q-117 0 -199.5 -91.5t-82.5 -228.5q0 -104 64 -163t161 -59zM574 872l-147 -144
h-50l126 144h71zM716 872l-147 -144h-50l126 144h71z" />
    <glyph glyph-name="ohungarumlaut" unicode="&#x151;" horiz-adv-x="572" 
d="M261 -12q-102 0 -161.5 59t-59.5 156q0 117 77.5 204.5t191.5 87.5q102 0 161.5 -59t59.5 -155q0 -118 -77.5 -205.5t-191.5 -87.5zM263 55q80 0 134 67.5t54 155.5q0 69 -38 109.5t-106 40.5q-80 0 -134 -67.5t-54 -155.5q0 -69 38 -109.5t106 -40.5zM440 700l-147 -144
h-50l126 144h71zM582 700l-147 -144h-50l126 144h71z" />
    <glyph glyph-name="OE" unicode="&#x152;" horiz-adv-x="1105" 
d="M997 0h-437l21 102q-86 -114 -240 -114q-124 0 -202.5 82t-78.5 210q0 173 110.5 285t265.5 112q183 0 239 -154l32 144h437l-16 -74h-354l-48 -215h347l-16 -74h-348l-51 -230h355zM604 201l49 223q-14 85 -72 132t-145 47q-120 0 -204 -92t-84 -227q0 -101 60.5 -161.5
t157.5 -60.5q72 0 135.5 37t102.5 102z" />
    <glyph glyph-name="oe" unicode="&#x153;" horiz-adv-x="962" 
d="M912 217h-389q-1 -4 -1 -23q0 -61 42.5 -102.5t119.5 -41.5q78 0 136 48l26 -53q-70 -57 -167 -57q-85 0 -140.5 44t-66.5 94q-18 -28 -32.5 -45.5t-41 -42t-62 -37.5t-77.5 -13q-99 0 -159 57.5t-60 157.5q0 116 76.5 204t190.5 88q81 0 131.5 -44.5t60.5 -93.5
q89 138 215 138q91 0 149 -56.5t58 -154.5q0 -35 -9 -67zM531 273h320q2 8 2 18q0 61 -38 101.5t-107 40.5q-68 0 -118.5 -50.5t-58.5 -109.5zM447 278q0 75 -40.5 112.5t-101.5 37.5q-77 0 -131.5 -66t-54.5 -157q0 -69 37.5 -109.5t104.5 -40.5q78 0 132 66t54 157z" />
    <glyph glyph-name="Racute" unicode="&#x154;" horiz-adv-x="609" 
d="M508 0h-92l-112 265h-139l-58 -265h-83l147 667h245q76 0 132.5 -47.5t56.5 -126.5q0 -93 -60 -155t-157 -69zM355 338h2q75 0 118 42.5t43 105.5q0 46 -34.5 76.5t-79.5 30.5h-166l-57 -255h174zM604 872l-201 -144h-59l180 144h80z" />
    <glyph glyph-name="racute" unicode="&#x155;" horiz-adv-x="330" 
d="M96 0h-75l107 483h75l-17 -73q38 43 79.5 63.5t100.5 20.5l-17 -78q-12 4 -38 4q-40 0 -77.5 -23t-62.5 -56zM453 700l-201 -144h-59l180 144h80z" />
    <glyph glyph-name="Rcommaaccent" unicode="&#x156;" horiz-adv-x="609" 
d="M508 0h-92l-112 265h-139l-58 -265h-83l147 667h245q76 0 132.5 -47.5t56.5 -126.5q0 -93 -60 -155t-157 -69zM355 338h2q75 0 118 42.5t43 105.5q0 46 -34.5 76.5t-79.5 30.5h-166l-57 -255h174zM278 -121q0 -41 -30 -82t-72 -63l-27 28q26 13 47.5 34.5t28.5 43.5
q-1 -1 -7 -1q-15 0 -25.5 11t-10.5 28q0 21 15.5 36t35.5 15t32.5 -13t12.5 -37z" />
    <glyph glyph-name="rcommaaccent" unicode="&#x157;" horiz-adv-x="330" 
d="M96 0h-75l107 483h75l-17 -73q38 43 79.5 63.5t100.5 20.5l-17 -78q-12 4 -38 4q-40 0 -77.5 -23t-62.5 -56zM138 -121q0 -41 -30 -82t-72 -63l-27 28q26 13 47.5 34.5t28.5 43.5q-1 -1 -7 -1q-15 0 -25.5 11t-10.5 28q0 21 15.5 36t35.5 15t32.5 -13t12.5 -37z" />
    <glyph glyph-name="Rcaron" unicode="&#x158;" horiz-adv-x="609" 
d="M508 0h-92l-112 265h-139l-58 -265h-83l147 667h245q76 0 132.5 -47.5t56.5 -126.5q0 -93 -60 -155t-157 -69zM355 338h2q75 0 118 42.5t43 105.5q0 46 -34.5 76.5t-79.5 30.5h-166l-57 -255h174zM450 728h-72l-66 144h49l59 -106l104 106h53z" />
    <glyph glyph-name="rcaron" unicode="&#x159;" horiz-adv-x="330" 
d="M96 0h-75l107 483h75l-17 -73q38 43 79.5 63.5t100.5 20.5l-17 -78q-12 4 -38 4q-40 0 -77.5 -23t-62.5 -56zM298 556h-72l-66 144h49l59 -106l104 106h53z" />
    <glyph glyph-name="Sacute" unicode="&#x15a;" horiz-adv-x="586" 
d="M286 -12q-88 0 -161.5 33.5t-108.5 86.5l57 59q35 -49 93 -77t127 -28q72 0 109.5 38t37.5 86q0 30 -24.5 54t-61.5 39t-79.5 34t-79.5 38t-61.5 53.5t-24.5 78.5q0 79 67.5 137t169.5 58q76 0 140.5 -28.5t99.5 -77.5l-56 -58q-33 44 -85 67t-109 23q-58 0 -98 -32.5
t-40 -76.5q0 -33 34 -58t83 -44t97.5 -41t82.5 -61t34 -92q0 -85 -65.5 -148t-177.5 -63zM591 872l-201 -144h-59l180 144h80z" />
    <glyph glyph-name="sacute" unicode="&#x15b;" horiz-adv-x="465" 
d="M207 -12q-135 0 -204 86l48 51q21 -31 65 -53.5t95 -22.5q50 0 80.5 25t30.5 60q0 25 -26 44t-63.5 32.5t-75 29t-63.5 42.5t-26 64q0 63 49 106t134 43q59 0 109 -22.5t76 -56.5l-44 -49q-17 28 -58 47.5t-87 19.5q-47 0 -75.5 -21t-28.5 -53q0 -23 26 -41t63.5 -31
t75 -29t63.5 -44.5t26 -67.5q0 -66 -51 -112.5t-139 -46.5zM494 700l-201 -144h-59l180 144h80z" />
    <glyph glyph-name="Scircumflex" unicode="&#x15c;" horiz-adv-x="586" 
d="M487 728h-49l-60 106l-103 -106h-53l127 144h72zM286 -12q-88 0 -161.5 33.5t-108.5 86.5l57 59q35 -49 93 -77t127 -28q72 0 109.5 38t37.5 86q0 30 -24.5 54t-61.5 39t-79.5 34t-79.5 38t-61.5 53.5t-24.5 78.5q0 79 67.5 137t169.5 58q76 0 140.5 -28.5t99.5 -77.5
l-56 -58q-33 44 -85 67t-109 23q-58 0 -98 -32.5t-40 -76.5q0 -33 34 -58t83 -44t97.5 -41t82.5 -61t34 -92q0 -85 -65.5 -148t-177.5 -63z" />
    <glyph glyph-name="scircumflex" unicode="&#x15d;" horiz-adv-x="465" 
d="M207 -12q-135 0 -204 86l48 51q21 -31 65 -53.5t95 -22.5q50 0 80.5 25t30.5 60q0 25 -26 44t-63.5 32.5t-75 29t-63.5 42.5t-26 64q0 63 49 106t134 43q59 0 109 -22.5t76 -56.5l-44 -49q-17 28 -58 47.5t-87 19.5q-47 0 -75.5 -21t-28.5 -53q0 -23 26 -41t63.5 -31
t75 -29t63.5 -44.5t26 -67.5q0 -66 -51 -112.5t-139 -46.5zM430 556h-49l-60 106l-103 -106h-53l127 144h72z" />
    <glyph glyph-name="Scedilla" unicode="&#x15e;" horiz-adv-x="586" 
d="M206 -191q-68 0 -108 38l27 36q33 -35 83 -35q29 0 45 13t16 34q0 30 -36 30q-21 0 -36 -17l-29 19l40 69q-64 12 -115 41.5t-77 70.5l57 59q35 -49 93 -77t127 -28q72 0 109.5 38t37.5 86q0 30 -24.5 54t-61.5 39t-79.5 34t-79.5 38t-61.5 53.5t-24.5 78.5
q0 79 67.5 137t169.5 58q76 0 140.5 -28.5t99.5 -77.5l-56 -58q-33 44 -85 67t-109 23q-58 0 -98 -32.5t-40 -76.5q0 -33 34 -58t83 -44t97.5 -41t82.5 -61t34 -92q0 -85 -65.5 -148t-177.5 -63q-12 0 -36 2l-27 -45q12 11 33 11q26 0 42 -15.5t16 -42.5q0 -40 -30 -64.5
t-78 -24.5z" />
    <glyph glyph-name="scedilla" unicode="&#x15f;" horiz-adv-x="465" 
d="M146 -191q-68 0 -108 38l27 36q33 -35 83 -35q29 0 45 13t16 34q0 30 -36 30q-21 0 -36 -17l-29 19l39 66q-92 15 -144 81l48 51q21 -31 65 -53.5t95 -22.5q50 0 80.5 25t30.5 60q0 25 -26 44t-63.5 32.5t-75 29t-63.5 42.5t-26 64q0 63 49 106t134 43q59 0 109 -22.5
t76 -56.5l-44 -49q-17 28 -58 47.5t-87 19.5q-47 0 -75.5 -21t-28.5 -53q0 -23 26 -41t63.5 -31t75 -29t63.5 -44.5t26 -67.5q0 -66 -51 -112.5t-139 -46.5q-12 0 -18 1l-26 -44q12 11 33 11q26 0 42 -15.5t16 -42.5q0 -40 -30 -64.5t-78 -24.5z" />
    <glyph glyph-name="Scaron" unicode="&#x160;" horiz-adv-x="586" 
d="M430 728h-72l-66 144h49l59 -106l104 106h53zM286 -12q-88 0 -161.5 33.5t-108.5 86.5l57 59q35 -49 93 -77t127 -28q72 0 109.5 38t37.5 86q0 30 -24.5 54t-61.5 39t-79.5 34t-79.5 38t-61.5 53.5t-24.5 78.5q0 79 67.5 137t169.5 58q76 0 140.5 -28.5t99.5 -77.5
l-56 -58q-33 44 -85 67t-109 23q-58 0 -98 -32.5t-40 -76.5q0 -33 34 -58t83 -44t97.5 -41t82.5 -61t34 -92q0 -85 -65.5 -148t-177.5 -63z" />
    <glyph glyph-name="scaron" unicode="&#x161;" horiz-adv-x="465" 
d="M207 -12q-135 0 -204 86l48 51q21 -31 65 -53.5t95 -22.5q50 0 80.5 25t30.5 60q0 25 -26 44t-63.5 32.5t-75 29t-63.5 42.5t-26 64q0 63 49 106t134 43q59 0 109 -22.5t76 -56.5l-44 -49q-17 28 -58 47.5t-87 19.5q-47 0 -75.5 -21t-28.5 -53q0 -23 26 -41t63.5 -31
t75 -29t63.5 -44.5t26 -67.5q0 -66 -51 -112.5t-139 -46.5zM335 556h-72l-66 144h49l59 -106l104 106h53z" />
    <glyph glyph-name="Tcommaaccent" unicode="&#x162;" horiz-adv-x="570" 
d="M272 0h-83l131 593h-211l16 74h506l-16 -74h-212zM258 -121q0 -41 -30 -82t-72 -63l-27 28q26 13 47.5 34.5t28.5 43.5q-1 -1 -7 -1q-15 0 -25.5 11t-10.5 28q0 21 15.5 36t35.5 15t32.5 -13t12.5 -37z" />
    <glyph glyph-name="Tcommaaccent" unicode="&#x21a;" horiz-adv-x="570" 
d="M272 0h-83l131 593h-211l16 74h506l-16 -74h-212zM258 -121q0 -41 -30 -82t-72 -63l-27 28q26 13 47.5 34.5t28.5 43.5q-1 -1 -7 -1q-15 0 -25.5 11t-10.5 28q0 21 15.5 36t35.5 15t32.5 -13t12.5 -37z" />
    <glyph glyph-name="tcommaaccent" unicode="&#x163;" horiz-adv-x="294" 
d="M167 -12q-111 0 -111 88q0 12 3 28l70 313h-80l15 66h80l29 132h74l-29 -132h99l-15 -66h-98l-67 -298q-1 -5 -1 -19q0 -45 48 -45q26 0 46 16l8 -60q-30 -23 -71 -23zM120 -121q0 -41 -30 -82t-72 -63l-27 28q26 13 47.5 34.5t28.5 43.5q-1 -1 -7 -1q-15 0 -25.5 11
t-10.5 28q0 21 15.5 36t35.5 15t32.5 -13t12.5 -37z" />
    <glyph glyph-name="tcommaaccent" unicode="&#x21b;" horiz-adv-x="294" 
d="M167 -12q-111 0 -111 88q0 12 3 28l70 313h-80l15 66h80l29 132h74l-29 -132h99l-15 -66h-98l-67 -298q-1 -5 -1 -19q0 -45 48 -45q26 0 46 16l8 -60q-30 -23 -71 -23zM120 -121q0 -41 -30 -82t-72 -63l-27 28q26 13 47.5 34.5t28.5 43.5q-1 -1 -7 -1q-15 0 -25.5 11
t-10.5 28q0 21 15.5 36t35.5 15t32.5 -13t12.5 -37z" />
    <glyph glyph-name="Tcaron" unicode="&#x164;" horiz-adv-x="570" 
d="M272 0h-83l131 593h-211l16 74h506l-16 -74h-212zM429 728h-72l-66 144h49l59 -106l104 106h53z" />
    <glyph glyph-name="tcaron" unicode="&#x165;" horiz-adv-x="313" 
d="M167 -12q-111 0 -111 88q0 12 3 28l70 313h-80l15 66h80l29 132h74l-29 -132h99l-15 -66h-98l-67 -298q-1 -5 -1 -19q0 -45 48 -45q26 0 46 16l8 -60q-30 -23 -71 -23zM420 693q0 -41 -30 -82t-72 -63l-27 28q26 13 47.5 34.5t28.5 43.5q-1 -1 -7 -1q-15 0 -25.5 11
t-10.5 28q0 21 15.5 36t35.5 15t32.5 -13t12.5 -37z" />
    <glyph glyph-name="Tbar" unicode="&#x166;" horiz-adv-x="570" 
d="M272 0h-83l65 294h-150l10 48h150l56 251h-211l16 74h506l-16 -74h-212l-56 -251h151l-10 -48h-151z" />
    <glyph glyph-name="tbar" unicode="&#x167;" horiz-adv-x="294" 
d="M167 -12q-111 0 -111 88q0 12 3 28l27 123h-80l11 48h80l32 142h-80l15 66h80l29 132h74l-29 -132h99l-15 -66h-98l-32 -142h69l-10 -48h-70l-24 -108q-1 -5 -1 -19q0 -45 48 -45q26 0 46 16l8 -60q-30 -23 -71 -23z" />
    <glyph glyph-name="Utilde" unicode="&#x168;" horiz-adv-x="701" 
d="M336 -12q-123 0 -191.5 60t-68.5 162q0 24 5 49l90 408h84l-90 -406q-5 -35 -5 -42q1 -70 47.5 -113.5t128.5 -43.5q88 0 136.5 50.5t69.5 148.5l90 406h84l-90 -407q-29 -132 -96.5 -202t-193.5 -70zM530 726q-25 0 -42 14.5t-24.5 31.5t-20.5 31.5t-31 14.5
q-43 0 -62 -86h-46q27 134 114 134q25 0 42 -14.5t24.5 -31.5t21 -31.5t31.5 -14.5q42 0 62 86h46q-29 -134 -115 -134z" />
    <glyph glyph-name="utilde" unicode="&#x169;" horiz-adv-x="551" 
d="M128 483h75l-70 -317q-5 -23 -5 -33q0 -78 100 -78q76 0 148 76l78 352h75l-107 -483h-75l16 70q-84 -82 -170 -82q-66 0 -105 31t-39 88q0 13 5 41zM415 554q-25 0 -42 14.5t-24.5 31.5t-20.5 31.5t-31 14.5q-43 0 -62 -86h-46q27 134 114 134q25 0 42 -14.5t24.5 -31.5
t21 -31.5t31.5 -14.5q42 0 62 86h46q-29 -134 -115 -134z" />
    <glyph glyph-name="Umacron" unicode="&#x16a;" horiz-adv-x="701" 
d="M336 -12q-123 0 -191.5 60t-68.5 162q0 24 5 49l90 408h84l-90 -406q-5 -35 -5 -42q1 -70 47.5 -113.5t128.5 -43.5q88 0 136.5 50.5t69.5 148.5l90 406h84l-90 -407q-29 -132 -96.5 -202t-193.5 -70zM643 749h-362l11 48h362z" />
    <glyph glyph-name="umacron" unicode="&#x16b;" horiz-adv-x="551" 
d="M128 483h75l-70 -317q-5 -23 -5 -33q0 -78 100 -78q76 0 148 76l78 352h75l-107 -483h-75l16 70q-84 -82 -170 -82q-66 0 -105 31t-39 88q0 13 5 41zM530 578h-362l11 48h362z" />
    <glyph glyph-name="Ubreve" unicode="&#x16c;" horiz-adv-x="701" 
d="M336 -12q-123 0 -191.5 60t-68.5 162q0 24 5 49l90 408h84l-90 -406q-5 -35 -5 -42q1 -70 47.5 -113.5t128.5 -43.5q88 0 136.5 50.5t69.5 148.5l90 406h84l-90 -407q-29 -132 -96.5 -202t-193.5 -70zM654 810q-85 -88 -194 -88q-53 0 -94 23.5t-63 64.5l42 32
q36 -72 123 -72q88 0 154 72z" />
    <glyph glyph-name="ubreve" unicode="&#x16d;" horiz-adv-x="551" 
d="M128 483h75l-70 -317q-5 -23 -5 -33q0 -78 100 -78q76 0 148 76l78 352h75l-107 -483h-75l16 70q-84 -82 -170 -82q-66 0 -105 31t-39 88q0 13 5 41zM543 651q-85 -88 -194 -88q-53 0 -94 23.5t-63 64.5l42 32q36 -72 123 -72q88 0 154 72z" />
    <glyph glyph-name="Uring" unicode="&#x16e;" horiz-adv-x="701" 
d="M336 -12q-123 0 -191.5 60t-68.5 162q0 24 5 49l90 408h84l-90 -406q-5 -35 -5 -42q1 -70 47.5 -113.5t128.5 -43.5q88 0 136.5 50.5t69.5 148.5l90 406h84l-90 -407q-29 -132 -96.5 -202t-193.5 -70zM461 692q-39 0 -64 25t-25 64q0 44 32 76t76 32q40 0 64.5 -24.5
t24.5 -64.5q0 -44 -32 -76t-76 -32zM464 732q26 0 45.5 19t19.5 45q0 24 -14 38.5t-37 14.5q-26 0 -46 -19t-20 -45q0 -23 14.5 -38t37.5 -15z" />
    <glyph glyph-name="uring" unicode="&#x16f;" horiz-adv-x="551" 
d="M128 483h75l-70 -317q-5 -23 -5 -33q0 -78 100 -78q76 0 148 76l78 352h75l-107 -483h-75l16 70q-84 -82 -170 -82q-66 0 -105 31t-39 88q0 13 5 41zM355 554q-39 0 -64 25t-25 64q0 44 32 76t76 32q40 0 64.5 -24.5t24.5 -64.5q0 -44 -32 -76t-76 -32zM358 594
q26 0 45.5 19t19.5 45q0 24 -14 38.5t-37 14.5q-26 0 -46 -19t-20 -45q0 -23 14.5 -38t37.5 -15z" />
    <glyph glyph-name="Uhungarumlaut" unicode="&#x170;" horiz-adv-x="701" 
d="M336 -12q-123 0 -191.5 60t-68.5 162q0 24 5 49l90 408h84l-90 -406q-5 -35 -5 -42q1 -70 47.5 -113.5t128.5 -43.5q88 0 136.5 50.5t69.5 148.5l90 406h84l-90 -407q-29 -132 -96.5 -202t-193.5 -70zM543 872l-147 -144h-50l126 144h71zM685 872l-147 -144h-50l126 144
h71z" />
    <glyph glyph-name="uhungarumlaut" unicode="&#x171;" horiz-adv-x="551" 
d="M128 483h75l-70 -317q-5 -23 -5 -33q0 -78 100 -78q76 0 148 76l78 352h75l-107 -483h-75l16 70q-84 -82 -170 -82q-66 0 -105 31t-39 88q0 13 5 41zM430 700l-147 -144h-50l126 144h71zM572 700l-147 -144h-50l126 144h71z" />
    <glyph glyph-name="Uogonek" unicode="&#x172;" horiz-adv-x="701" 
d="M336 -12q-123 0 -191.5 60t-68.5 162q0 24 5 49l90 408h84l-90 -406q-5 -35 -5 -42q1 -70 47.5 -113.5t128.5 -43.5q88 0 136.5 50.5t69.5 148.5l90 406h84l-90 -407q-23 -106 -69.5 -171.5t-127.5 -88.5q-102 -44 -102 -107q0 -40 43 -40q34 0 55 41l32 -24
q-36 -56 -91 -56q-36 0 -59 19t-23 53q0 59 54 102h-2z" />
    <glyph glyph-name="uogonek" unicode="&#x173;" horiz-adv-x="551" 
d="M418 -106l32 -24q-36 -56 -91 -56q-36 0 -59 19t-23 53q0 68 70 114l16 70q-84 -82 -170 -82q-66 0 -105 31t-39 88q0 13 5 41l74 335h75l-70 -317q-5 -23 -5 -33q0 -78 100 -78q76 0 148 76l78 352h75l-107 -483q-102 -44 -102 -107q0 -40 43 -40q35 0 55 41z" />
    <glyph glyph-name="Wcircumflex" unicode="&#x174;" horiz-adv-x="883" 
d="M624 0h-90l-28 538l-266 -538h-90l-43 667h90l25 -556l275 556h70l30 -556l270 556h95zM681 728h-49l-60 106l-103 -106h-53l127 144h72z" />
    <glyph glyph-name="wcircumflex" unicode="&#x175;" horiz-adv-x="734" 
d="M515 0h-76l-40 388l-212 -388h-75l-47 483h76l31 -385l213 385h65l41 -385l203 385h82zM569 556h-49l-60 106l-103 -106h-53l127 144h72z" />
    <glyph glyph-name="Ycircumflex" unicode="&#x176;" horiz-adv-x="626" 
d="M554 728h-49l-60 106l-103 -106h-53l127 144h72zM301 0h-83l62 282l-178 385h91l139 -310l275 310h103l-347 -385z" />
    <glyph glyph-name="ycircumflex" unicode="&#x177;" horiz-adv-x="490" 
d="M-46 -185l26 67q18 -8 48 -8q39 0 71 48l49 75l-92 486h79l72 -396l249 396h84l-372 -581q-61 -98 -150 -98q-37 0 -64 11zM447 556h-49l-60 106l-103 -106h-53l127 144h72z" />
    <glyph glyph-name="Ydieresis" unicode="&#x178;" horiz-adv-x="626" 
d="M583 778q0 -20 -15.5 -35.5t-36.5 -15.5q-17 0 -29 12t-12 29q0 20 15.5 35.5t36.5 15.5q17 0 29 -12t12 -29zM377 778q0 -20 -16 -35.5t-36 -15.5q-17 0 -29 12t-12 29q0 20 15.5 35.5t36.5 15.5q17 0 29 -12t12 -29zM301 0h-83l62 282l-178 385h91l139 -310l275 310
h103l-347 -385z" />
    <glyph glyph-name="Zacute" unicode="&#x179;" horiz-adv-x="585" 
d="M483 0h-489l15 69l485 524h-369l16 74h482l-15 -69l-487 -524h378zM591 872l-201 -144h-59l180 144h80z" />
    <glyph glyph-name="zacute" unicode="&#x17a;" horiz-adv-x="472" 
d="M366 0h-368l12 59l342 358h-262l15 66h364l-13 -57l-344 -360h268zM496 700l-201 -144h-59l180 144h80z" />
    <glyph glyph-name="Zdotaccent" unicode="&#x17b;" horiz-adv-x="585" 
d="M483 0h-489l15 69l485 524h-369l16 74h482l-15 -69l-487 -524h378zM454 779q0 -21 -16 -37t-36 -16q-18 0 -30 12t-12 30q0 21 15.5 36.5t36.5 15.5q18 0 30 -11.5t12 -29.5z" />
    <glyph glyph-name="zdotaccent" unicode="&#x17c;" horiz-adv-x="472" 
d="M366 0h-368l12 59l342 358h-262l15 66h364l-13 -57l-344 -360h268zM365 625q0 -21 -15.5 -37t-36.5 -16q-18 0 -30 12t-12 30q0 21 15.5 36.5t36.5 15.5q18 0 30 -11.5t12 -29.5z" />
    <glyph glyph-name="Zcaron" unicode="&#x17d;" horiz-adv-x="585" 
d="M437 728h-72l-66 144h49l59 -106l104 106h53zM483 0h-489l15 69l485 524h-369l16 74h482l-15 -69l-487 -524h378z" />
    <glyph glyph-name="zcaron" unicode="&#x17e;" horiz-adv-x="472" 
d="M366 0h-368l12 59l342 358h-262l15 66h364l-13 -57l-344 -360h268zM336 556h-72l-66 144h49l59 -106l104 106h53z" />
    <glyph glyph-name="longs" unicode="&#x17f;" horiz-adv-x="284" 
d="M117 0h-75l92 417h-80l15 66h80l8 37q36 157 159 157q66 0 107 -41l-40 -46q-22 25 -61 25q-69 0 -90 -95z" />
    <glyph glyph-name="florin" unicode="&#x192;" horiz-adv-x="432" 
d="M55 -161h-84l92 415h-68v68h82l46 204q34 151 158 151q69 0 110 -41l-37 -58q-19 25 -58 25q-71 0 -92 -92l-42 -189h139v-68h-153z" />
    <glyph glyph-name="AEacute" unicode="&#x1fc;" horiz-adv-x="948" 
d="M839 0h-437l32 149h-258l-124 -149h-99l563 667h470l-16 -74h-354l-48 -215h348l-17 -74h-347l-51 -230h354zM451 222l78 354l-297 -354h219zM794 872l-201 -144h-59l180 144h80z" />
    <glyph glyph-name="aeacute" unicode="&#x1fd;" horiz-adv-x="939" 
d="M662 -12q-76 0 -124.5 34.5t-66.5 92.5l-25 -115h-75l16 69q-65 -81 -160 -81q-84 0 -135.5 53t-51.5 146q0 80 30.5 149.5t89.5 114t134 44.5q113 0 168 -88l16 76h75l-18 -80q74 92 174 92q90 0 138.5 -56t48.5 -151q0 -40 -9 -71h-389q-1 -4 -1 -23q0 -60 42.5 -101
t121.5 -41q76 0 134 47l26 -54q-76 -57 -159 -57zM303 428q-80 0 -131.5 -68t-51.5 -159q0 -67 37 -106.5t97 -39.5q44 0 83.5 23.5t64.5 58.5l47 213q-18 34 -57 56t-89 22zM826 273q1 4 1 18q0 64 -36.5 103t-105.5 39q-65 0 -116 -47.5t-63 -112.5h320zM689 700
l-201 -144h-59l180 144h80z" />
    <glyph glyph-name="Oslashacute" unicode="&#x1fe;" horiz-adv-x="765" 
d="M683 872l-201 -144h-59l180 144h80zM368 -12q-112 0 -194 57l-40 -45h-67l69 78q-76 79 -76 202q0 167 109 282.5t266 115.5q109 0 189 -54l39 43h67l-67 -75q80 -78 80 -205q0 -168 -109 -283.5t-266 -115.5zM373 62q116 0 199 91.5t83 228.5q0 89 -49 146l-377 -422
q59 -44 144 -44zM148 284q0 -85 45 -143l376 421q-57 42 -139 42q-117 0 -199.5 -91.5t-82.5 -228.5z" />
    <glyph glyph-name="oslashacute" unicode="&#x1ff;" horiz-adv-x="572" 
d="M547 700l-201 -144h-59l180 144h80zM66 0h-58l71 70q-39 54 -39 133q0 117 77.5 204.5t191.5 87.5q91 0 151 -49l37 37h58l-68 -67q43 -55 43 -135q0 -118 -77.5 -205.5t-191.5 -87.5q-95 0 -155 52zM263 55q80 0 134 67.5t54 155.5q0 48 -20 83l-271 -269
q37 -37 103 -37zM119 205q0 -45 17 -79l270 267q-38 35 -99 35q-80 0 -134 -67.5t-54 -155.5z" />
    <glyph glyph-name="Scommaaccent" unicode="&#x218;" horiz-adv-x="593" 
d="M291 -12q-88 0 -161.5 33.5t-108.5 86.5l57 59q35 -49 93 -77t127 -28q72 0 109.5 38t37.5 86q0 36 -34 62.5t-82.5 45t-97.5 40t-83 59.5t-34 90q0 79 67.5 137t169.5 58q76 0 140.5 -28.5t99.5 -77.5l-56 -58q-33 44 -85 67t-109 23q-58 0 -98 -32.5t-40 -76.5
q0 -33 34 -58t82.5 -44t97.5 -41t83 -61t34 -92q0 -85 -65.5 -148t-177.5 -63zM266 -121q0 -41 -30 -82t-72 -63l-27 28q26 13 47.5 34.5t28.5 43.5q-1 -1 -7 -1q-15 0 -25.5 11t-10.5 28q0 21 15.5 36t35.5 15t32.5 -13t12.5 -37z" />
    <glyph glyph-name="scommaaccent" unicode="&#x219;" horiz-adv-x="468" 
d="M207 -12q-135 0 -204 86l48 51q21 -31 65 -53.5t95 -22.5q50 0 80.5 25t30.5 60q0 25 -26 44t-63.5 32.5t-75 29t-63.5 42.5t-26 64q0 63 49 106t134 43q59 0 109 -22.5t76 -56.5l-44 -49q-17 28 -58 47.5t-87 19.5q-47 0 -75.5 -21t-28.5 -53q0 -23 26 -41t63.5 -31
t75 -29t63.5 -44.5t26 -67.5q0 -66 -51 -112.5t-139 -46.5zM207 -121q0 -41 -30 -82t-72 -63l-27 28q26 13 47.5 34.5t28.5 43.5q-1 -1 -7 -1q-15 0 -25.5 11t-10.5 28q0 21 15.5 36t35.5 15t32.5 -13t12.5 -37z" />
    <glyph glyph-name="hsuperior" unicode="&#x2b0;" horiz-adv-x="398" 
d="M394 326h-58l44 201q3 7 3 19q0 54 -66 54q-44 0 -94 -50l-49 -224h-58l96 434h58l-36 -164q50 52 112 52q47 0 73 -20.5t26 -59.5q0 -9 -4 -31z" />
    <glyph glyph-name="hsuperior" unicode="&#xf637;" horiz-adv-x="398" 
d="M394 326h-58l44 201q3 7 3 19q0 54 -66 54q-44 0 -94 -50l-49 -224h-58l96 434h58l-36 -164q50 52 112 52q47 0 73 -20.5t26 -59.5q0 -9 -4 -31z" />
    <glyph glyph-name="circumflex" unicode="&#x2c6;" horiz-adv-x="265" 
d="M334 556h-49l-60 106l-103 -106h-53l127 144h72z" />
    <glyph glyph-name="caron" unicode="&#x2c7;" horiz-adv-x="265" 
d="M239 556h-72l-66 144h49l59 -106l104 106h53z" />
    <glyph glyph-name="breve" unicode="&#x2d8;" horiz-adv-x="351" 
d="M441 651q-85 -88 -194 -88q-53 0 -94 23.5t-63 64.5l42 32q36 -72 123 -72q88 0 154 72z" />
    <glyph glyph-name="dotaccent" unicode="&#x2d9;" horiz-adv-x="112" 
d="M186 625q0 -21 -16 -37t-36 -16q-18 0 -30 12t-12 30q0 21 15.5 36.5t36.5 15.5q18 0 30 -11.5t12 -29.5z" />
    <glyph glyph-name="ring" unicode="&#x2da;" horiz-adv-x="196" 
d="M178 554q-39 0 -64 25t-25 64q0 44 32 76t76 32q40 0 64.5 -24.5t24.5 -64.5q0 -44 -32 -76t-76 -32zM181 594q26 0 45.5 19t19.5 45q0 24 -14 38.5t-37 14.5q-26 0 -46 -19t-20 -45q0 -23 14.5 -38t37.5 -15z" />
    <glyph glyph-name="ogonek" unicode="&#x2db;" horiz-adv-x="178" 
d="M64 -106l32 -24q-36 -56 -91 -56q-36 0 -59 19t-23 53q0 88 113 137l32 -23q-102 -44 -102 -107q0 -40 43 -40q35 0 55 41z" />
    <glyph glyph-name="tilde" unicode="&#x2dc;" horiz-adv-x="313" 
d="M296 554q-25 0 -42 14.5t-24.5 31.5t-20.5 31.5t-31 14.5q-43 0 -62 -86h-46q27 134 114 134q25 0 42 -14.5t24.5 -31.5t21 -31.5t31.5 -14.5q42 0 62 86h46q-29 -134 -115 -134z" />
    <glyph glyph-name="hungarumlaut" unicode="&#x2dd;" horiz-adv-x="305" 
d="M264 700l-147 -144h-50l126 144h71zM406 700l-147 -144h-50l126 144h71z" />
    <glyph glyph-name="Delta" unicode="&#x394;" horiz-adv-x="658" 
d="M595 0h-640l416 667h103zM496 74l-88 508l-313 -508h401z" />
    <glyph glyph-name="Delta" unicode="&#x2206;" horiz-adv-x="658" 
d="M595 0h-640l416 667h103zM496 74l-88 508l-313 -508h401z" />
    <glyph glyph-name="Omega" unicode="&#x3a9;" horiz-adv-x="765" 
d="M15 0l16 74h152q-117 90 -117 231q0 71 26.5 138t73 119.5t117 84t152.5 31.5q137 0 222.5 -77t85.5 -210q0 -106 -58 -186.5t-153 -130.5h126l-16 -74h-240l16 74q101 21 168.5 107t67.5 201q0 101 -60.5 161t-161.5 60q-123 0 -203 -93.5t-80 -224.5q0 -145 122 -211
l-10 -48h-1l-5 -26h-240z" />
    <glyph glyph-name="Omega" unicode="&#x2126;" horiz-adv-x="765" 
d="M15 0l16 74h152q-117 90 -117 231q0 71 26.5 138t73 119.5t117 84t152.5 31.5q137 0 222.5 -77t85.5 -210q0 -106 -58 -186.5t-153 -130.5h126l-16 -74h-240l16 74q101 21 168.5 107t67.5 201q0 101 -60.5 161t-161.5 60q-123 0 -203 -93.5t-80 -224.5q0 -145 122 -211
l-10 -48h-1l-5 -26h-240z" />
    <glyph glyph-name="pi" unicode="&#x3c0;" horiz-adv-x="561" 
d="M398 0h-76l96 433h-191l-96 -433h-76l95 433h-76l14 67h497l-15 -67h-76z" />
    <glyph glyph-name="endash" unicode="&#x2013;" horiz-adv-x="593" 
d="M555 209h-533l14 66h533z" />
    <glyph glyph-name="emdash" unicode="&#x2014;" horiz-adv-x="833" 
d="M795 209h-773l14 66h773z" />
    <glyph glyph-name="quoteleft" unicode="&#x2018;" horiz-adv-x="230" 
d="M109 515q0 46 33.5 92t81.5 70l31 -32q-28 -14 -52 -37.5t-32 -46.5h8q18 0 30.5 -12.5t12.5 -32.5q0 -24 -18 -41.5t-42 -17.5q-23 0 -38 15.5t-15 42.5z" />
    <glyph glyph-name="quoteright" unicode="&#x2019;" horiz-adv-x="230" 
d="M256 619q0 -46 -33.5 -92t-81.5 -71l-31 33q28 14 52 37.5t32 46.5h-8q-18 0 -30 12.5t-12 32.5q0 24 17.5 41.5t41.5 17.5q23 0 38 -15.5t15 -42.5z" />
    <glyph glyph-name="quotesinglbase" unicode="&#x201a;" horiz-adv-x="230" 
d="M128 42q0 -46 -33.5 -92t-81.5 -71l-31 33q67 34 84 84h-8q-18 0 -30.5 12.5t-12.5 32.5q0 24 18 41.5t42 17.5q23 0 38 -15.5t15 -42.5z" />
    <glyph glyph-name="quotedblleft" unicode="&#x201c;" horiz-adv-x="390" 
d="M275 515q0 46 34 92t82 70l31 -32q-28 -14 -52 -37.5t-32 -46.5h8q18 0 30 -12.5t12 -32.5q0 -24 -18 -41.5t-42 -17.5q-22 0 -37.5 15.5t-15.5 42.5zM116 515q0 46 34 92t82 70l30 -32q-28 -14 -52 -37.5t-32 -46.5h8q18 0 30.5 -12.5t12.5 -32.5q0 -24 -18 -41.5
t-42 -17.5q-23 0 -38 15.5t-15 42.5z" />
    <glyph glyph-name="quotedblright" unicode="&#x201d;" horiz-adv-x="390" 
d="M256 619q0 -46 -33.5 -92t-81.5 -71l-31 33q28 14 52 37.5t32 46.5h-8q-18 0 -30 12.5t-12 32.5q0 24 17.5 41.5t41.5 17.5q23 0 38 -15.5t15 -42.5zM416 619q0 -46 -34 -92t-82 -71l-30 33q28 14 51.5 37.5t32.5 46.5h-8q-18 0 -30.5 12.5t-12.5 32.5q0 24 18 41.5
t42 17.5q23 0 38 -15.5t15 -42.5z" />
    <glyph glyph-name="quotedblbase" unicode="&#x201e;" horiz-adv-x="390" 
d="M128 42q0 -46 -33.5 -92t-81.5 -71l-31 33q67 34 84 84h-8q-18 0 -30.5 12.5t-12.5 32.5q0 24 18 41.5t42 17.5q23 0 38 -15.5t15 -42.5zM288 42q0 -46 -34 -92t-82 -71l-30 33q28 14 51.5 37t31.5 47h-8q-17 0 -29.5 12.5t-12.5 32.5q0 24 18 41.5t42 17.5
q23 0 38 -15.5t15 -42.5z" />
    <glyph glyph-name="dagger" unicode="&#x2020;" horiz-adv-x="263" 
d="M304 531l-88 4l-43 -208h-48l51 208l-90 -4l9 43l89 -3l19 106h48l-28 -106l90 3z" />
    <glyph glyph-name="daggerdbl" unicode="&#x2021;" horiz-adv-x="263" 
d="M313 574l-9 -43l-88 4l-48 -213l90 4l-9 -43l-88 3l-21 -106h-48l29 106l-90 -3l9 43l88 -4l47 213l-89 -4l9 43l88 -3l20 106h48l-28 -106z" />
    <glyph glyph-name="bullet" unicode="&#x2022;" horiz-adv-x="358" 
d="M288 253q0 -48 -36.5 -83t-84.5 -35q-41 0 -69 28t-28 69q0 48 36.5 83t84.5 35q41 0 69 -28t28 -69z" />
    <glyph glyph-name="ellipsis" unicode="&#x2026;" horiz-adv-x="691" 
d="M66 -10q-21 0 -35.5 14.5t-14.5 36.5q0 24 17.5 41.5t42.5 17.5q21 0 35.5 -15t14.5 -36q0 -25 -17.5 -42t-42.5 -17zM296 -10q-21 0 -35.5 14.5t-14.5 36.5q0 24 17.5 41.5t42.5 17.5q21 0 35.5 -15t14.5 -36q0 -25 -17.5 -42t-42.5 -17zM526 -10q-21 0 -35.5 14.5
t-14.5 36.5q0 24 17.5 41.5t42.5 17.5q22 0 36.5 -15t14.5 -36q0 -25 -18 -42t-43 -17z" />
    <glyph glyph-name="perthousand" unicode="&#x2030;" horiz-adv-x="1084" 
d="M129 0h-55l573 667h56zM505 -12q-63 0 -106.5 37.5t-43.5 97.5q0 85 53 139.5t125 54.5q63 0 106.5 -37.5t43.5 -97.5q0 -85 -53 -139.5t-125 -54.5zM506 39q48 0 82.5 39.5t34.5 98.5q0 38 -26 63.5t-66 25.5q-47 0 -81.5 -39.5t-34.5 -98.5q0 -38 25.5 -63.5
t65.5 -25.5zM236 348q-62 0 -105.5 37.5t-43.5 97.5q0 85 53 139.5t125 54.5q63 0 106 -37.5t43 -97.5q0 -85 -52.5 -139.5t-125.5 -54.5zM238 399q48 0 82.5 39.5t34.5 98.5q0 38 -26 63.5t-66 25.5q-47 0 -81.5 -39.5t-34.5 -98.5q0 -38 25.5 -63.5t65.5 -25.5zM857 -12
q-63 0 -106.5 37.5t-43.5 97.5q0 85 53 139.5t126 54.5q62 0 105.5 -37.5t43.5 -97.5q0 -85 -53 -139.5t-125 -54.5zM859 39q47 0 81.5 39.5t34.5 98.5q0 38 -25.5 63.5t-65.5 25.5q-48 0 -82.5 -39.5t-34.5 -98.5q0 -38 26 -63.5t66 -25.5z" />
    <glyph glyph-name="guilsinglleft" unicode="&#x2039;" horiz-adv-x="295" 
d="M220 63h-71l-120 180l200 177h79l-204 -182z" />
    <glyph glyph-name="guilsinglright" unicode="&#x203a;" horiz-adv-x="295" 
d="M77 420h71l120 -180l-200 -177h-79l204 182z" />
    <glyph glyph-name="fraction" unicode="&#x2044;" horiz-adv-x="139" 
d="M403 667l-574 -667h-54l573 667h55z" />
    <glyph glyph-name="fraction" unicode="&#x2215;" horiz-adv-x="139" 
d="M403 667l-574 -667h-54l573 667h55z" />
    <glyph glyph-name="zerosuperior" unicode="&#x2070;" 
d="M436 671q0 -37 -11 -78.5t-32.5 -83t-61 -68.5t-90.5 -27q-68 0 -104.5 43t-36.5 113q0 37 10.5 78.5t32 83t61 68.5t90.5 27q68 0 105 -43t37 -113zM375 673q0 105 -83 105q-35 0 -61.5 -22t-41 -56.5t-21.5 -68t-7 -63.5q0 -105 82 -105q45 0 77 39t43.5 84t11.5 87z
" />
    <glyph glyph-name="foursuperior" unicode="&#x2074;" 
d="M404 521h-57l-22 -100h-60l22 100h-196l9 45l230 255h83l-56 -251h57zM297 570l44 194l-179 -194h135z" />
    <glyph glyph-name="fivesuperior" unicode="&#x2075;" 
d="M404 566q0 -65 -45 -108.5t-115 -43.5q-52 0 -92.5 19t-60.5 53l43 36q35 -59 109 -59q44 0 72 27t28 67q0 34 -25 52.5t-62 18.5q-50 0 -90 -37l-40 16l48 214h261l-11 -49h-201l-28 -130q37 32 88 32q50 0 85.5 -29.5t35.5 -78.5z" />
    <glyph glyph-name="sixsuperior" unicode="&#x2076;" 
d="M410 564q0 -61 -42.5 -105.5t-114.5 -44.5t-110.5 40t-38.5 107q0 108 58.5 187t144.5 79t129 -49l-37 -41q-29 41 -93 41q-61 0 -100 -58.5t-39 -100.5v-4q54 61 116 61q54 0 90.5 -29.5t36.5 -82.5zM348 557q0 34 -24.5 52.5t-64.5 18.5q-50 0 -95 -55q-2 -6 -2 -22
q0 -40 24.5 -64t65.5 -24q44 0 70 28t26 66z" />
    <glyph glyph-name="sevensuperior" unicode="&#x2077;" horiz-adv-x="362" 
d="M432 780l-245 -359h-68l243 351h-223l12 49h290z" />
    <glyph glyph-name="eightsuperior" unicode="&#x2078;" 
d="M400 526q0 -48 -42 -80t-109 -32t-112.5 28t-45.5 78q0 42 35.5 74t90.5 38q-75 27 -75 86q0 52 43 80.5t101 28.5q59 0 105 -26t46 -73q0 -41 -29.5 -70.5t-87.5 -36.5q33 -12 56.5 -36.5t23.5 -58.5zM376 717q0 30 -25 46t-63 16q-37 0 -62.5 -18.5t-25.5 -48.5
q0 -27 25.5 -44t48.5 -22q39 3 70.5 20t31.5 51zM341 531q0 25 -21.5 45t-54.5 29q-51 -4 -82 -25t-31 -54q0 -28 28 -46.5t65 -18.5q40 0 68 20t28 50z" />
    <glyph glyph-name="ninesuperior" unicode="&#x2079;" 
d="M127 678q0 61 42.5 105.5t114.5 44.5t110.5 -40t38.5 -107q0 -108 -58.5 -187t-144.5 -79t-129 49l36 41q29 -41 94 -41q61 0 100 58.5t39 100.5v4q-54 -61 -117 -61q-53 0 -89.5 29.5t-36.5 82.5zM189 685q0 -34 24 -52.5t64 -18.5q51 0 96 55q2 6 2 22q0 40 -24.5 64
t-65.5 24q-44 0 -70 -28t-26 -66z" />
    <glyph glyph-name="parenleftsuperior" unicode="&#x207d;" horiz-adv-x="161" 
d="M179 372l-39 -16q-42 74 -42 177q0 194 159 353l32 -16q-133 -179 -133 -359q0 -78 23 -139z" />
    <glyph glyph-name="parenrightsuperior" unicode="&#x207e;" horiz-adv-x="161" 
d="M160 870l39 16q42 -73 42 -177q0 -194 -159 -353l-32 16q133 179 133 359q0 78 -23 139z" />
    <glyph glyph-name="nsuperior" unicode="&#x207f;" horiz-adv-x="398" 
d="M356 326h-58l45 201q2 10 2 19q0 54 -66 54q-42 0 -94 -50l-49 -224h-58l69 314h58l-9 -44q50 52 112 52q47 0 73 -20.5t26 -59.5q0 -9 -4 -31z" />
    <glyph glyph-name="zeroinferior" unicode="&#x2080;" 
d="M320 104q0 -37 -11 -78.5t-32.5 -83t-61 -68.5t-90.5 -27q-68 0 -104.5 43t-36.5 113q0 37 10.5 78.5t32 83t61 68.5t90.5 27q68 0 105 -43t37 -113zM259 106q0 105 -83 105q-35 0 -61.5 -22t-41 -56.5t-21.5 -68t-7 -63.5q0 -105 82 -105q45 0 77 39t43.5 84t11.5 87z
" />
    <glyph glyph-name="oneinferior" unicode="&#x2081;" horiz-adv-x="235" 
d="M89 -146h-60l69 318l-78 -66l-29 38l133 110h53z" />
    <glyph glyph-name="twoinferior" unicode="&#x2082;" 
d="M256 -146h-292l11 49q156 94 219 144t63 101q0 30 -24.5 46.5t-60.5 16.5q-69 0 -112 -46l-28 39q56 56 142 56q59 0 101.5 -27.5t42.5 -81.5q0 -60 -63.5 -116t-189.5 -132h201z" />
    <glyph glyph-name="threeinferior" unicode="&#x2083;" 
d="M282 -32q0 -48 -40 -84.5t-107 -36.5q-55 0 -97 19t-63 54l40 35q39 -59 118 -59q41 0 65 23t24 57q0 26 -27.5 42.5t-72.5 16.5q-23 0 -30 -1l11 50q28 -2 61 -2q42 0 67 18t25 50q0 28 -27.5 44.5t-65.5 16.5q-58 0 -108 -43l-23 39q58 53 135 53q65 0 107.5 -26.5
t42.5 -75.5q0 -44 -31 -72t-81 -32q32 -6 54.5 -29t22.5 -57z" />
    <glyph glyph-name="fourinferior" unicode="&#x2084;" 
d="M288 -46h-57l-22 -100h-60l22 100h-196l9 45l230 255h83l-56 -251h57zM181 3l44 194l-179 -194h135z" />
    <glyph glyph-name="fiveinferior" unicode="&#x2085;" 
d="M288 -1q0 -65 -45 -108.5t-115 -43.5q-52 0 -92.5 19t-60.5 53l43 36q35 -59 109 -59q44 0 72 27t28 67q0 34 -25 52.5t-62 18.5q-50 0 -90 -37l-40 16l48 214h261l-11 -49h-201l-28 -130q37 32 88 32q50 0 85.5 -29.5t35.5 -78.5z" />
    <glyph glyph-name="sixinferior" unicode="&#x2086;" 
d="M294 -3q0 -61 -42.5 -105.5t-114.5 -44.5t-110.5 40t-38.5 107q0 108 58.5 187t144.5 79t129 -49l-37 -41q-29 41 -93 41q-61 0 -100 -58.5t-39 -100.5v-4q54 61 116 61q54 0 90.5 -29.5t36.5 -82.5zM232 -10q0 34 -24.5 52.5t-64.5 18.5q-50 0 -95 -55q-2 -6 -2 -22
q0 -40 24.5 -64t65.5 -24q44 0 70 28t26 66z" />
    <glyph glyph-name="seveninferior" unicode="&#x2087;" horiz-adv-x="362" 
d="M316 213l-245 -359h-68l243 351h-223l12 49h290z" />
    <glyph glyph-name="eightinferior" unicode="&#x2088;" 
d="M284 -41q0 -48 -42 -80t-109 -32t-112.5 28t-45.5 78q0 42 35.5 74t90.5 38q-75 27 -75 86q0 52 43 80.5t101 28.5q59 0 105 -26t46 -73q0 -41 -29.5 -70.5t-87.5 -36.5q33 -12 56.5 -36.5t23.5 -58.5zM260 150q0 30 -25 46t-63 16q-37 0 -62.5 -18.5t-25.5 -48.5
q0 -27 25.5 -44t48.5 -22q39 3 70.5 20t31.5 51zM225 -36q0 25 -21.5 45t-54.5 29q-51 -4 -82 -25t-31 -54q0 -28 28 -46.5t65 -18.5q40 0 68 20t28 50z" />
    <glyph glyph-name="nineinferior" unicode="&#x2089;" 
d="M11 111q0 61 42.5 105.5t114.5 44.5t110.5 -40t38.5 -107q0 -108 -58.5 -187t-144.5 -79t-129 49l36 41q29 -41 94 -41q61 0 100 58.5t39 100.5v4q-54 -61 -117 -61q-53 0 -89.5 29.5t-36.5 82.5zM73 118q0 -34 24 -52.5t64 -18.5q51 0 96 55q2 6 2 22q0 40 -24.5 64
t-65.5 24q-44 0 -70 -28t-26 -66z" />
    <glyph glyph-name="parenleftinferior" unicode="&#x208d;" horiz-adv-x="161" 
d="M54 -195l-39 -16q-42 73 -42 177q0 194 159 353l32 -16q-133 -179 -133 -359q0 -78 23 -139z" />
    <glyph glyph-name="parenrightinferior" unicode="&#x208e;" horiz-adv-x="161" 
d="M35 303l39 16q42 -74 42 -177q0 -194 -159 -353l-32 16q133 179 133 359q0 78 -23 139z" />
    <glyph glyph-name="colonmonetary" unicode="&#x20a1;" horiz-adv-x="681" 
d="M373 -12q-19 0 -51 4l-51 -92h-53l56 101q-31 8 -68 27l-71 -128h-53l86 154q-103 82 -103 226q0 88 31.5 163.5t83.5 126.5t120 79.5t140 28.5q40 0 71 -7l54 97h53l-61 -109q34 -13 65 -33l79 142h53l-96 -172q33 -32 55 -75l-80 -31q-8 16 -18 29l-254 -457h17
q99 0 179 77l62 -47q-100 -104 -246 -104zM153 284q0 -95 56 -156l263 473q-18 3 -36 3q-113 0 -198 -90t-85 -230zM245 98q29 -20 67 -29l270 486q-26 23 -63 36z" />
    <glyph glyph-name="frenchfranc" unicode="&#x20a3;" horiz-adv-x="561" 
d="M117 0h-83l30 137h-78l11 48h77l107 482h437l-16 -74h-354l-48 -215h348l-17 -74h-347l-27 -119h202l-11 -48h-201z" />
    <glyph glyph-name="lira" unicode="&#x20a4;" horiz-adv-x="518" 
d="M38 328l10 46h73q-25 45 -25 88q0 86 71.5 150.5t171.5 64.5q73 0 131.5 -32.5t74.5 -86.5l-75 -33q-9 36 -45 59t-83 23q-64 0 -110 -42t-46 -110q0 -40 23 -81h187l-10 -46h-151q17 -34 17 -68v-2h118l-9 -46h-118q-13 -36 -41.5 -67.5t-58.5 -50.5q21 8 47 8
q33 0 82 -20.5t77 -20.5q50 0 92 40l20 -67q-52 -47 -117 -47q-46 0 -108 23t-101 23q-48 0 -115 -40l-16 63q61 24 106.5 66.5t58.5 89.5h-157l10 46h151q-2 28 -25 70h-110z" />
    <glyph glyph-name="uni20A6" unicode="&#x20a6;" horiz-adv-x="729" 
d="M586 0h-80l-122 242h-214l-53 -242h-83l53 242h-78l11 48h78l20 94h-77l10 48h78l52 235h85l119 -235h212l53 235h83l-52 -235h76l-9 -48h-78l-20 -94h76l-11 -48h-76zM202 384l-21 -94h179l-47 94h-111zM409 384l48 -94h109l21 94h-178zM236 537l-24 -105h77zM482 242
l51 -101l22 101h-73z" />
    <glyph glyph-name="peseta" unicode="&#x20a7;" horiz-adv-x="640" 
d="M117 0h-83l97 441h-77l11 50h77l39 176h259q74 0 124.5 -51t50.5 -121v-4h74l-12 -50h-69q-18 -75 -79.5 -125.5t-169.5 -50.5h-184zM366 339q61 0 101 28t54 74h-307l-23 -102h175zM248 593l-23 -102h303q-2 42 -33.5 72t-77.5 30h-169z" />
    <glyph glyph-name="rupee" unicode="&#x20a8;" horiz-adv-x="1019" 
d="M508 0h-92l-112 265h-139l-58 -265h-83l147 667h245q76 0 132.5 -47.5t56.5 -126.5q0 -93 -60 -155t-157 -69zM355 338h2q75 0 118 42.5t43 105.5q0 46 -34.5 76.5t-79.5 30.5h-166l-57 -255h174zM761 -12q-135 0 -204 86l48 51q21 -31 65 -53.5t95 -22.5q50 0 80.5 25
t30.5 60q0 25 -26 44t-63.5 32.5t-75 29t-63.5 42.5t-26 64q0 63 49 106t134 43q59 0 109 -22.5t76 -56.5l-44 -49q-17 28 -58 47.5t-87 19.5q-47 0 -75.5 -21t-28.5 -53q0 -23 26 -41t63.5 -31t75 -29t63.5 -44.5t26 -67.5q0 -66 -51 -112.5t-139 -46.5z" />
    <glyph glyph-name="uni20A9" unicode="&#x20a9;" horiz-adv-x="883" 
d="M624 0h-90l-13 242h-162l-119 -242h-90l-16 242h-115l11 48h101l-6 94h-74l10 48h61l-15 235h90l10 -235h173l117 235h70l12 -235h174l114 235h95l-119 -235h58l-10 -48h-73l-47 -94h99l-11 -48h-113zM582 384l5 -94h97l45 94h-147zM209 384l5 -94h96l47 94h-148z
M430 384l-47 -94h136l-5 94h-84zM589 242l8 -131l63 131h-71zM216 242l6 -131l65 131h-71zM506 538l-53 -106h58z" />
    <glyph glyph-name="afii57636" unicode="&#x20aa;" horiz-adv-x="821" 
d="M507 0h-288l85 387h73l-71 -321h201q67 0 104.5 37t54.5 114l74 333h72l-74 -338q-24 -108 -76 -160t-155 -52zM142 550h213q61 0 107.5 -15t77.5 -53.5t31 -98.5q0 -27 -8 -65l-34 -156h-73l35 158q6 24 6 46q0 58 -37 88t-99 30h-160l-107 -484h-73z" />
    <glyph glyph-name="Euro" unicode="&#x20ac;" horiz-adv-x="695" 
d="M392 -12q-123 0 -207 67.5t-99 181.5h-57l12 52h43q2 49 10 90h-34l12 53h38q43 113 139 179.5t210 66.5q97 0 167 -42t106 -115l-80 -31q-28 57 -80 85.5t-117 28.5q-78 0 -147 -46.5t-105 -125.5h314l-12 -53h-321q-12 -42 -12 -90h313l-12 -52h-297
q14 -80 72.5 -127.5t148.5 -47.5q99 0 179 77l62 -47q-100 -104 -246 -104z" />
    <glyph glyph-name="afii61289" unicode="&#x2113;" horiz-adv-x="475" 
d="M134 511l-90 -407q-3 -18 -3 -34q0 -39 30 -60.5t81 -21.5q43 0 72 23l-9 57q-22 -16 -46 -16t-37 12t-13 30q0 11 3 23l36 164l196 114q34 20 51.5 31t47.5 34t44.5 46.5t14.5 48.5q0 54 -51 88t-120 34q-83 0 -136 -43.5t-71 -122.5zM338 450l-163 -95l33 149
q13 57 48 87.5t85 30.5q39 0 68.5 -19.5t29.5 -51.5q0 -20 -15.5 -38.5t-33 -30.5t-52.5 -32z" />
    <glyph glyph-name="afii61352" unicode="&#x2116;" horiz-adv-x="1113" 
d="M576 0h-80l-270 537l-119 -537h-83l147 667h85l267 -526l117 526h83zM947 350q-68 0 -109 39.5t-41 103.5q0 77 53.5 132t128.5 55q68 0 109 -39.5t41 -103.5q0 -77 -53 -132t-129 -55zM948 398q54 0 88 42t34 98q0 42 -25 67.5t-67 25.5q-54 0 -87.5 -41.5t-33.5 -98.5
q0 -41 25 -67t66 -26z" />
    <glyph glyph-name="published" unicode="&#x2117;" horiz-adv-x="778" 
d="M754 334q0 -142 -101.5 -243.5t-244.5 -101.5q-142 0 -243 101t-101 244t101 244t243 101q143 0 244.5 -101.5t101.5 -243.5zM723 334q0 129 -93 221.5t-222 92.5t-221 -92.5t-92 -221.5t92 -221.5t221 -92.5t222 92.5t93 221.5zM591 433q0 -56 -41 -92t-103 -36h-123
l-37 -174h-37l89 405h130q52 0 87 -28t35 -75zM553 430q0 33 -24 52t-64 19h-97l-35 -162h120q45 0 72.5 25.5t27.5 65.5z" />
    <glyph glyph-name="servicemark" unicode="&#x2120;" horiz-adv-x="476" 
d="M484 447h-28l40 182l-115 -182h-8l-35 182l-40 -182h-28l48 220h42l29 -160l99 160h44zM247 511q0 -32 -23 -52t-62 -20q-69 0 -96 40l22 19q23 -33 72 -33q24 0 38 11t14 29q0 15 -18 26.5t-39 18.5t-39 21t-18 34q0 29 23.5 48.5t60.5 19.5q63 0 86 -35l-23 -17
q-20 28 -65 28q-22 0 -35 -11t-13 -26t18 -26t39.5 -17t39.5 -21t18 -37z" />
    <glyph glyph-name="trademark" unicode="&#x2122;" horiz-adv-x="454" 
d="M464 447h-28l40 182l-115 -182h-8l-35 182l-40 -182h-28l48 220h43l29 -160l99 160h43zM257 641h-62l-43 -194h-28l43 194h-62l5 26h152z" />
    <glyph glyph-name="estimated" unicode="&#x212e;" horiz-adv-x="842" 
d="M829 324h-632q-4 0 -4 -5v-190q0 -15 9 -23q98 -103 240 -103q151 0 250 115h57q-54 -63 -135 -99.5t-174 -36.5q-161 0 -275.5 103t-114.5 248t114.5 248t275.5 103t275.5 -103t114.5 -248zM687 349v191q0 14 -10 24q-97 99 -236 99t-238 -102q-10 -10 -10 -24v-188
q0 -6 5 -6h485q4 0 4 6z" />
    <glyph glyph-name="onethird" unicode="&#x2153;" horiz-adv-x="807" 
d="M683 667l-574 -667h-54l573 667h55zM733 114q0 -48 -40 -84.5t-107 -36.5q-55 0 -97 19t-63 54l40 35q39 -59 118 -59q41 0 65 23t24 57q0 26 -27.5 42.5t-72.5 16.5q-23 0 -30 -1l11 50q28 -2 61 -2q42 0 67 18t25 50q0 28 -27.5 44.5t-65.5 16.5q-58 0 -108 -43l-23 39
q58 53 135 53q65 0 107.5 -26.5t42.5 -75.5q0 -44 -31 -72t-81 -32q32 -6 54.5 -29t22.5 -57zM180 267h-60l69 318l-78 -66l-29 38l133 110h53z" />
    <glyph glyph-name="twothirds" unicode="&#x2154;" horiz-adv-x="915" 
d="M791 667l-574 -667h-54l573 667h55zM841 114q0 -48 -40 -84.5t-107 -36.5q-55 0 -97 19t-63 54l40 35q39 -59 118 -59q41 0 65 23t24 57q0 26 -27.5 42.5t-72.5 16.5q-23 0 -30 -1l11 50q28 -2 61 -2q42 0 67 18t25 50q0 28 -27.5 44.5t-65.5 16.5q-58 0 -108 -43l-23 39
q58 53 135 53q65 0 107.5 -26.5t42.5 -75.5q0 -44 -31 -72t-81 -32q32 -6 54.5 -29t22.5 -57zM347 267h-292l11 49q156 94 219 144t63 101q0 30 -24.5 46.5t-60.5 16.5q-69 0 -112 -46l-28 39q56 56 142 56q59 0 101.5 -27.5t42.5 -81.5q0 -60 -63.5 -116t-189.5 -132h201z
" />
    <glyph glyph-name="oneeighth" unicode="&#x215b;" horiz-adv-x="807" 
d="M683 667l-574 -667h-54l573 667h55zM735 105q0 -48 -42 -80t-109 -32t-112.5 28t-45.5 78q0 42 35.5 74t90.5 38q-75 27 -75 86q0 52 43 80.5t101 28.5q59 0 105 -26t46 -73q0 -41 -29.5 -70.5t-87.5 -36.5q33 -12 56.5 -36.5t23.5 -58.5zM711 296q0 30 -25 46t-63 16
q-37 0 -62.5 -18.5t-25.5 -48.5q0 -27 25.5 -44t48.5 -22q39 3 70.5 20t31.5 51zM676 110q0 25 -21.5 45t-54.5 29q-51 -4 -82 -25t-31 -54q0 -28 28 -46.5t65 -18.5q40 0 68 20t28 50zM180 267h-60l69 318l-78 -66l-29 38l133 110h53z" />
    <glyph glyph-name="threeeighths" unicode="&#x215c;" horiz-adv-x="915" 
d="M791 667l-574 -667h-54l573 667h55zM843 105q0 -48 -42 -80t-109 -32t-112.5 28t-45.5 78q0 42 35.5 74t90.5 38q-75 27 -75 86q0 52 43 80.5t101 28.5q59 0 105 -26t46 -73q0 -41 -29.5 -70.5t-87.5 -36.5q33 -12 56.5 -36.5t23.5 -58.5zM819 296q0 30 -25 46t-63 16
q-37 0 -62.5 -18.5t-25.5 -48.5q0 -27 25.5 -44t48.5 -22q39 3 70.5 20t31.5 51zM784 110q0 25 -21.5 45t-54.5 29q-51 -4 -82 -25t-31 -54q0 -28 28 -46.5t65 -18.5q40 0 68 20t28 50zM373 381q0 -48 -40 -84.5t-107 -36.5q-55 0 -97 19t-63 54l40 35q39 -59 118 -59
q41 0 65 23t24 57q0 26 -27.5 42.5t-72.5 16.5q-23 0 -30 -1l11 50q28 -2 61 -2q42 0 67 18t25 50q0 28 -27.5 44.5t-65.5 16.5q-58 0 -108 -43l-23 39q58 53 135 53q65 0 107.5 -26.5t42.5 -75.5q0 -44 -31 -72t-81 -32q32 -6 54.5 -29t22.5 -57z" />
    <glyph glyph-name="fiveeighths" unicode="&#x215d;" horiz-adv-x="912" 
d="M788 667l-574 -667h-54l573 667h55zM840 105q0 -48 -42 -80t-109 -32t-112.5 28t-45.5 78q0 42 35.5 74t90.5 38q-75 27 -75 86q0 52 43 80.5t101 28.5q59 0 105 -26t46 -73q0 -41 -29.5 -70.5t-87.5 -36.5q33 -12 56.5 -36.5t23.5 -58.5zM816 296q0 30 -25 46t-63 16
q-37 0 -62.5 -18.5t-25.5 -48.5q0 -27 25.5 -44t48.5 -22q39 3 70.5 20t31.5 51zM781 110q0 25 -21.5 45t-54.5 29q-51 -4 -82 -25t-31 -54q0 -28 28 -46.5t65 -18.5q40 0 68 20t28 50zM379 412q0 -65 -45 -108.5t-115 -43.5q-52 0 -92.5 19t-60.5 53l43 36q35 -59 109 -59
q44 0 72 27t28 67q0 34 -25 52.5t-62 18.5q-50 0 -90 -37l-40 16l48 214h261l-11 -49h-201l-28 -130q37 32 88 32q50 0 85.5 -29.5t35.5 -78.5z" />
    <glyph glyph-name="seveneighths" unicode="&#x215e;" horiz-adv-x="830" 
d="M706 667l-574 -667h-54l573 667h55zM758 105q0 -48 -42 -80t-109 -32t-112.5 28t-45.5 78q0 42 35.5 74t90.5 38q-75 27 -75 86q0 52 43 80.5t101 28.5q59 0 105 -26t46 -73q0 -41 -29.5 -70.5t-87.5 -36.5q33 -12 56.5 -36.5t23.5 -58.5zM734 296q0 30 -25 46t-63 16
q-37 0 -62.5 -18.5t-25.5 -48.5q0 -27 25.5 -44t48.5 -22q39 3 70.5 20t31.5 51zM699 110q0 25 -21.5 45t-54.5 29q-51 -4 -82 -25t-31 -54q0 -28 28 -46.5t65 -18.5q40 0 68 20t28 50zM407 626l-245 -359h-68l243 351h-223l12 49h290z" />
    <glyph glyph-name="arrowleft" unicode="&#x2190;" horiz-adv-x="582" 
d="M558 211h-269l12 -130l-281 205l281 204l-12 -129h269v-150z" />
    <glyph glyph-name="arrowup" unicode="&#x2191;" horiz-adv-x="582" 
d="M236 17v269l-130 -12l205 281l204 -281l-129 12v-269h-150z" />
    <glyph glyph-name="arrowright" unicode="&#x2192;" horiz-adv-x="582" 
d="M604 286l-281 -205l12 130h-268v150h268l-12 129z" />
    <glyph glyph-name="arrowdown" unicode="&#x2193;" horiz-adv-x="582" 
d="M386 555v-269l130 12l-205 -281l-204 281l129 -12v269h150z" />
    <glyph glyph-name="partialdiff" unicode="&#x2202;" horiz-adv-x="572" 
d="M264 -12q-100 0 -163 58t-63 148q0 119 74 202t177 83q53 0 98.5 -26.5t68.5 -79.5q-48 145 -220 271l53 57q115 -85 179.5 -188t64.5 -210q0 -132 -76 -223.5t-193 -91.5zM265 55q76 0 129.5 63t53.5 152q0 57 -37.5 99.5t-110.5 42.5q-75 0 -128.5 -61t-53.5 -149
q0 -66 39 -106.5t108 -40.5z" />
    <glyph glyph-name="product" unicode="&#x220f;" horiz-adv-x="708" 
d="M492 -90h-83l151 683h-259l-151 -683h-83l151 683h-109l16 74h644l-16 -74h-110z" />
    <glyph glyph-name="summation" unicode="&#x2211;" horiz-adv-x="576" 
d="M398 293l-167 300h368l16 74h-467l-15 -73l164 -296l-301 -314l-16 -74h468l15 74h-362z" />
    <glyph glyph-name="minus" unicode="&#x2212;" horiz-adv-x="499" 
d="M483 308h-440l11 52h441z" />
    <glyph glyph-name="radical" unicode="&#x221a;" horiz-adv-x="725" 
d="M373 0h-58l-58 327l-168 -61l-7 50l221 79l57 -317l365 589h61z" />
    <glyph glyph-name="infinity" unicode="&#x221e;" horiz-adv-x="656" 
d="M181 170q-63 0 -99 37t-36 99q0 78 48 136.5t126 58.5q50 0 87.5 -30.5t51.5 -81.5q71 112 154 112q63 0 99.5 -37.5t36.5 -98.5q0 -78 -48.5 -136.5t-125.5 -58.5q-51 0 -88 29.5t-52 80.5q-70 -110 -154 -110zM475 223q52 0 85 39.5t33 97.5q0 39 -24.5 63.5
t-63.5 24.5q-71 0 -132 -116q7 -52 33.5 -80.5t68.5 -28.5zM190 223q71 0 134 115q-7 52 -34.5 81t-69.5 29q-52 0 -85 -39.5t-33 -96.5q0 -39 24.5 -64t63.5 -25z" />
    <glyph glyph-name="integral" unicode="&#x222b;" horiz-adv-x="348" 
d="M1 -100h-60l12 55h61q32 0 53.5 21.5t29.5 58.5l134 598q30 135 155 135h61l-13 -55h-61q-32 0 -54 -21t-30 -58l-133 -600q-30 -134 -155 -134z" />
    <glyph glyph-name="approxequal" unicode="&#x2248;" horiz-adv-x="499" 
d="M21 211l13 59q40 -33 103 -33q47 0 111 29t121 29q62 0 106 -27l-13 -59q-41 34 -104 34q-47 0 -111 -29.5t-121 -29.5q-61 0 -105 27zM63 400l13 59q40 -33 103 -33q46 0 110.5 29t121.5 29q62 0 106 -27l-13 -59q-40 33 -104 33q-46 0 -110.5 -29t-121.5 -29
q-61 0 -105 27z" />
    <glyph glyph-name="notequal" unicode="&#x2260;" horiz-adv-x="499" 
d="M91 93h-57l101 118h-114l12 53h147l120 140h-236l12 53h270l100 117h59l-101 -117h113l-12 -53h-147l-120 -140h236l-12 -53h-270z" />
    <glyph glyph-name="lessequal" unicode="&#x2264;" horiz-adv-x="499" 
d="M437 99l-393 218l13 53l489 219l-15 -66l-417 -183l336 -181zM416 0h-441l11 53h441z" />
    <glyph glyph-name="greaterequal" unicode="&#x2265;" horiz-adv-x="499" 
d="M485 317l-489 -218l15 66l417 181l-336 183l13 60l392 -219zM415 0h-441l11 53h441z" />
    <glyph glyph-name="triangleright" unicode="&#x22b2;" horiz-adv-x="587" 
d="M609 286l-535 -309v618z" />
    <glyph glyph-name="triangleleft" unicode="&#x22b3;" horiz-adv-x="587" 
d="M555 595v-618l-535 309z" />
    <glyph glyph-name="uni2318" unicode="&#x2318;" horiz-adv-x="667" 
d="M206 153l17 75h-83q-34 0 -58.5 -25t-24.5 -59q0 -28 18 -46.5t46 -18.5q33 0 55.5 20t29.5 54zM269 439l14 65q2 7 2 20q0 29 -18 46.5t-47 17.5q-35 0 -59 -23.5t-24 -57.5q0 -31 19 -49.5t51 -18.5h62zM269 265h137l31 137h-137zM569 160q0 31 -19 49.5t-51 18.5h-62
l-15 -65q-2 -14 -2 -20q0 -29 18.5 -46.5t47.5 -17.5q35 0 59 23.5t24 57.5zM648 523q0 28 -17.5 46.5t-45.5 18.5q-69 0 -85 -74l-17 -75h82q34 0 58.5 25t24.5 59zM607 160q0 -48 -39 -83t-89 -35q-42 0 -70 28t-28 70q0 14 3 29l14 59h-137l-19 -83q-11 -46 -45 -74.5
t-80 -28.5q-41 0 -70 28t-29 69q0 49 38 87.5t87 38.5h87l31 137h-62q-45 0 -72.5 29t-27.5 76q0 48 38.5 83t88.5 35q42 0 70 -28t28 -70q0 -14 -3 -29l-13 -59h136l19 83q11 46 45 74.5t80 28.5q42 0 71 -28t29 -69q0 -50 -38 -88t-87 -38h-87l-31 -137h59q46 0 74.5 -29
t28.5 -76z" />
    <glyph glyph-name="uni2318" unicode="&#xf8ff;" horiz-adv-x="667" 
d="M206 153l17 75h-83q-34 0 -58.5 -25t-24.5 -59q0 -28 18 -46.5t46 -18.5q33 0 55.5 20t29.5 54zM269 439l14 65q2 7 2 20q0 29 -18 46.5t-47 17.5q-35 0 -59 -23.5t-24 -57.5q0 -31 19 -49.5t51 -18.5h62zM269 265h137l31 137h-137zM569 160q0 31 -19 49.5t-51 18.5h-62
l-15 -65q-2 -14 -2 -20q0 -29 18.5 -46.5t47.5 -17.5q35 0 59 23.5t24 57.5zM648 523q0 28 -17.5 46.5t-45.5 18.5q-69 0 -85 -74l-17 -75h82q34 0 58.5 25t24.5 59zM607 160q0 -48 -39 -83t-89 -35q-42 0 -70 28t-28 70q0 14 3 29l14 59h-137l-19 -83q-11 -46 -45 -74.5
t-80 -28.5q-41 0 -70 28t-29 69q0 49 38 87.5t87 38.5h87l31 137h-62q-45 0 -72.5 29t-27.5 76q0 48 38.5 83t88.5 35q42 0 70 -28t28 -70q0 -14 -3 -29l-13 -59h136l19 83q11 46 45 74.5t80 28.5q42 0 71 -28t29 -69q0 -50 -38 -88t-87 -38h-87l-31 -137h59q46 0 74.5 -29
t28.5 -76z" />
    <glyph glyph-name="blacksquare" unicode="&#x25a0;" horiz-adv-x="661" 
d="M638 0h-571v572h571v-572z" />
    <glyph glyph-name="triagup" unicode="&#x25b2;" horiz-adv-x="616" 
d="M637 29l-619 1l309 535z" />
    <glyph glyph-name="triagdn" unicode="&#x25bc;" horiz-adv-x="616" 
d="M637 510l-310 -535l-309 535h619z" />
    <glyph glyph-name="lozenge" unicode="&#x25ca;" horiz-adv-x="375" 
d="M144 0h-21l-84 334l231 333h21l85 -333zM142 45l197 293l-67 284l-196 -292z" />
    <glyph glyph-name="circlesolid" unicode="&#x25cf;" horiz-adv-x="695" 
d="M664 285q0 -123 -87 -210t-210 -87t-210 87t-87 210t87 210t210 87t210 -87t87 -210z" />
    <glyph glyph-name="blackstar" unicode="&#x2605;" horiz-adv-x="759" 
d="M779 421l-235 -171l90 -275l-235 170l-234 -170l89 275l-234 171h290l89 276l90 -276h290z" />
    <glyph glyph-name="ballotbox" unicode="&#x2610;" horiz-adv-x="661" 
d="M636 0h-571v572h571v-572zM579 53v467h-458v-467h458z" />
    <glyph glyph-name="boxchecked" unicode="&#x2611;" horiz-adv-x="661" 
d="M717 698l-69 -126h8v-572h-571v572h502l84 156zM599 53v427l-211 -389l-202 246l42 39l152 -188l179 332h-418v-467h458z" />
    <glyph glyph-name="diamond" unicode="&#x2666;" horiz-adv-x="501" 
d="M521 285l-251 -250l-250 250l250 251z" />
    <glyph glyph-name="checkmark" unicode="&#x2713;" horiz-adv-x="531" 
d="M551 698l-329 -607l-202 246l42 39l152 -188l291 540z" />
    <glyph glyph-name="perthousand.onum" unicode="&#xf628;" horiz-adv-x="878" 
d="M331 444q0 -62 -43 -108.5t-106 -46.5q-54 0 -86.5 31.5t-32.5 85.5q0 63 42 109.5t105 46.5q54 0 87.5 -32t33.5 -86zM581 550l-505 -550h-52l503 550h54zM279 442q0 32 -18.5 54t-51.5 22q-40 0 -67.5 -33t-27.5 -77q0 -33 18.5 -54t51.5 -21q40 0 67.5 32.5t27.5 76.5
zM542 144q0 -62 -43 -108.5t-106 -46.5q-54 0 -86.5 31.5t-32.5 85.5q0 63 42 109.5t105 46.5q54 0 87.5 -32t33.5 -86zM490 142q0 33 -18.5 54.5t-51.5 21.5q-40 0 -67 -33t-27 -77q0 -33 18.5 -54t51.5 -21q39 0 66.5 32.5t27.5 76.5zM829 144q0 -62 -43 -108.5
t-106 -46.5q-54 0 -87 31.5t-33 85.5q0 62 42.5 109t105.5 47q54 0 87.5 -32t33.5 -86zM776 142q0 33 -18.5 54.5t-51.5 21.5q-39 0 -66.5 -33t-27.5 -77q0 -33 18.5 -54t51.5 -21q39 0 66.5 32.5t27.5 76.5z" />
    <glyph glyph-name="zero.tzero" unicode="&#xf638;" horiz-adv-x="612" 
d="M278 -12q-99 0 -157 64l-43 -52h-68l81 96q-32 62 -32 152q0 103 37 200t111 163t167 66q97 0 154 -63l45 53h68l-82 -97q32 -62 32 -152q0 -103 -36.5 -200t-110 -163.5t-166.5 -66.5zM285 62q66 0 118 59t77.5 140t25.5 162q0 41 -9 74l-322 -382q37 -53 110 -53z
M143 243q0 -42 9 -75l322 382q-35 53 -109 53q-65 0 -117.5 -58t-78.5 -139.5t-26 -162.5z" />
    <glyph glyph-name="zero.tnum" unicode="&#xf639;" horiz-adv-x="598" 
d="M271 -12q-104 0 -161.5 69.5t-57.5 190.5q0 103 37 200t111 163t167 66q104 0 160.5 -69t56.5 -190q0 -103 -36.5 -200t-110 -163.5t-166.5 -66.5zM278 62q66 0 118 59t77.5 140t25.5 162q0 83 -34 131.5t-107 48.5q-65 0 -117.5 -58t-78.5 -139.5t-26 -162.5
q0 -82 35 -131.5t107 -49.5z" />
    <glyph glyph-name="two.tnum" unicode="&#xf63a;" horiz-adv-x="598" 
d="M473 0h-458l18 82q94 57 152.5 95t124 85.5t101 83.5t59.5 75.5t24 76.5q0 49 -40 77t-104 28q-101 0 -171 -65l-39 59q38 36 95.5 58t119.5 22q95 0 161 -45t66 -130q0 -54 -32 -109.5t-95.5 -111t-130.5 -102.5t-162 -105h327z" />
    <glyph glyph-name="three.tnum" unicode="&#xf63b;" horiz-adv-x="598" 
d="M284 -12q-86 0 -157 38.5t-98 100.5l60 47q25 -52 78.5 -82t115.5 -30q73 0 116 39.5t43 100.5q0 47 -39 75t-109 28q-53 0 -64 -1l18 76q10 -1 90 -1q68 0 114 30t46 88q0 46 -41.5 76t-110.5 30q-96 0 -169 -65l-35 56q85 83 210 83q103 0 167 -44.5t64 -123.5
q0 -71 -55.5 -118t-125.5 -53q53 -12 87.5 -49t34.5 -94q0 -87 -68 -147t-172 -60z" />
    <glyph glyph-name="four.tnum" unicode="&#xf63c;" horiz-adv-x="598" 
d="M397 0h-83l37 169h-317l17 76l375 422h118l-94 -425h94l-16 -73h-94zM367 242l77 348l-311 -348h234z" />
    <glyph glyph-name="five.tnum" unicode="&#xf63d;" horiz-adv-x="598" 
d="M283 -12q-174 0 -244 133l63 50q52 -109 185 -109q70 0 118 46.5t48 113.5q0 60 -41.5 93.5t-108.5 33.5q-75 0 -139 -48l-54 27l74 339h408l-16 -74h-325l-49 -220q56 45 140 45t141 -49.5t57 -137.5q0 -101 -72.5 -172t-184.5 -71z" />
    <glyph glyph-name="six.tnum" unicode="&#xf63e;" horiz-adv-x="598" 
d="M290 -12q-109 0 -168.5 64.5t-59.5 181.5q0 73 20.5 148.5t58.5 142.5t103.5 109.5t145.5 42.5q138 0 201 -100l-56 -56q-43 82 -150 82q-61 0 -109.5 -39.5t-74.5 -92t-43 -118.5q-5 -15 -5 -21q30 33 83.5 59.5t108.5 26.5q89 0 145.5 -47.5t56.5 -128.5
q0 -103 -75 -178.5t-182 -75.5zM291 62q72 0 121 50.5t49 118.5q0 54 -41 86t-108 32q-93 0 -168 -83q-2 -16 -2 -47q0 -71 39.5 -114t109.5 -43z" />
    <glyph glyph-name="seven.tnum" unicode="&#xf63f;" horiz-adv-x="598" 
d="M202 0h-96l398 593h-355l16 74h455l-13 -57z" />
    <glyph glyph-name="eight.tnum" unicode="&#xf640;" horiz-adv-x="598" 
d="M280 -12q-105 0 -173.5 44.5t-68.5 125.5q0 73 54.5 124.5t147.5 70.5q-49 20 -82.5 56t-33.5 85q0 88 72 135.5t165 47.5t160.5 -44t67.5 -120q0 -71 -52 -117.5t-137 -59.5q52 -24 88.5 -63.5t36.5 -94.5q0 -83 -72 -136.5t-173 -53.5zM328 378q77 5 124.5 37t47.5 85
q0 43 -42 72.5t-102 29.5q-62 0 -105.5 -31.5t-43.5 -84.5q0 -38 38.5 -68t82.5 -40zM282 62q63 0 111.5 34t48.5 90q0 44 -40.5 76.5t-88.5 44.5q-81 -5 -134 -41.5t-53 -92.5q0 -53 44.5 -82t111.5 -29z" />
    <glyph glyph-name="nine.tnum" unicode="&#xf641;" horiz-adv-x="598" 
d="M348 678q109 0 168.5 -64.5t59.5 -181.5q0 -73 -20.5 -148.5t-59 -142.5t-104 -109.5t-145.5 -42.5q-138 0 -201 100l56 56q43 -82 150 -82q47 0 86 22t66 59.5t45 79t30 89.5q3 9 6 21q-31 -34 -84 -60t-108 -26q-89 0 -146 48t-57 128q0 103 75 178.5t183 75.5z
M346 604q-72 0 -120.5 -50.5t-48.5 -118.5q0 -54 41 -86t107 -32q93 0 169 83q2 18 2 47q0 71 -40 114t-110 43z" />
    <glyph glyph-name="percent.onum" unicode="&#xf642;" horiz-adv-x="592" 
d="M331 444q0 -62 -43 -108.5t-106 -46.5q-54 0 -86.5 31.5t-32.5 85.5q0 63 42 109.5t105 46.5q54 0 87.5 -32t33.5 -86zM581 550l-505 -550h-52l503 550h54zM279 442q0 32 -18.5 54t-51.5 22q-40 0 -67.5 -33t-27.5 -77q0 -33 18.5 -54t51.5 -21q40 0 67.5 32.5t27.5 76.5
zM542 144q0 -62 -43 -108.5t-106 -46.5q-54 0 -86.5 31.5t-32.5 85.5q0 63 42 109.5t105 46.5q54 0 87.5 -32t33.5 -86zM490 142q0 33 -18.5 54.5t-51.5 21.5q-40 0 -67 -33t-27 -77q0 -33 18.5 -54t51.5 -21q39 0 66.5 32.5t27.5 76.5z" />
    <glyph glyph-name="zero.tonum" unicode="&#xf643;" horiz-adv-x="598" 
d="M567 325q0 -54 -18.5 -111.5t-53 -108.5t-91 -84t-123.5 -33q-115 0 -177 63t-62 174q0 54 19 111.5t53 108.5t91 84t124 33q115 0 176.5 -63t61.5 -174zM482 321q0 81 -39 124t-114 43q-64 0 -112 -45t-68.5 -102t-20.5 -112q0 -81 39 -124t114 -43q64 0 112 45
t68.5 102t20.5 112z" />
    <glyph glyph-name="one.tonum" unicode="&#xf644;" horiz-adv-x="598" 
d="M342 0h-83l97 441l-132 -114l-38 51l204 172h73z" />
    <glyph glyph-name="two.tonum" unicode="&#xf645;" horiz-adv-x="598" 
d="M456 0h-431l15 71q426 155 426 308q0 49 -39 79t-98 30q-106 0 -187 -75l-39 58q97 91 233 91q94 0 156 -44.5t62 -122.5q0 -51 -30 -99.5t-82.5 -89t-112 -72.5t-131.5 -60h274z" />
    <glyph glyph-name="three.tonum" unicode="&#xf646;" horiz-adv-x="598" 
d="M258 -136q-86 0 -157 38.5t-98 100.5l60 47q25 -52 78.5 -82t115.5 -30q73 0 116 39.5t43 100.5q0 47 -39 75t-109 28q-53 0 -64 -1l18 76q10 -1 90 -1q68 0 114 30t46 88q0 46 -41.5 76t-110.5 30q-96 0 -169 -65l-35 56q85 83 210 83q103 0 167 -44.5t64 -123.5
q0 -71 -55.5 -118t-125.5 -53q53 -12 87.5 -49t34.5 -94q0 -87 -68 -147t-172 -60z" />
    <glyph glyph-name="four.tonum" unicode="&#xf647;" horiz-adv-x="598" 
d="M502 55h-93l-38 -172h-83l38 172h-317l15 69l380 426h114l-93 -422h93zM342 128l76 345l-310 -345h234z" />
    <glyph glyph-name="five.tonum" unicode="&#xf648;" horiz-adv-x="598" 
d="M257 -129q-174 0 -244 133l63 50q52 -109 185 -109q70 0 118 46.5t48 113.5q0 60 -41.5 93.5t-108.5 33.5q-75 0 -139 -48l-54 27l74 339h408l-16 -74h-325l-49 -220q56 45 140 45t141 -49.5t57 -137.5q0 -101 -72.5 -172t-184.5 -71z" />
    <glyph glyph-name="six.tonum" unicode="&#xf649;" horiz-adv-x="598" 
d="M290 -12q-109 0 -168.5 64.5t-59.5 181.5q0 73 20.5 148.5t58.5 142.5t103.5 109.5t145.5 42.5q138 0 201 -100l-56 -56q-43 82 -150 82q-61 0 -109.5 -39.5t-74.5 -92t-43 -118.5q-5 -15 -5 -21q30 33 83.5 59.5t108.5 26.5q89 0 145.5 -47.5t56.5 -128.5
q0 -103 -75 -178.5t-182 -75.5zM291 62q72 0 121 50.5t49 118.5q0 54 -41 86t-108 32q-93 0 -168 -83q-2 -16 -2 -47q0 -71 39.5 -114t109.5 -43z" />
    <glyph glyph-name="seven.tonum" unicode="&#xf64a;" horiz-adv-x="598" 
d="M176 -117h-96l398 593h-355l16 74h455l-13 -57z" />
    <glyph glyph-name="eight.tonum" unicode="&#xf64b;" horiz-adv-x="598" 
d="M280 -12q-105 0 -173.5 44.5t-68.5 125.5q0 73 54.5 124.5t147.5 70.5q-49 20 -82.5 56t-33.5 85q0 88 72 135.5t165 47.5t160.5 -44t67.5 -120q0 -71 -52 -117.5t-137 -59.5q52 -24 88.5 -63.5t36.5 -94.5q0 -83 -72 -136.5t-173 -53.5zM328 378q77 5 124.5 37t47.5 85
q0 43 -42 72.5t-102 29.5q-62 0 -105.5 -31.5t-43.5 -84.5q0 -38 38.5 -68t82.5 -40zM282 62q63 0 111.5 34t48.5 90q0 44 -40.5 76.5t-88.5 44.5q-81 -5 -134 -41.5t-53 -92.5q0 -53 44.5 -82t111.5 -29z" />
    <glyph glyph-name="nine.tonum" unicode="&#xf64c;" horiz-adv-x="598" 
d="M322 561q109 0 168.5 -64.5t59.5 -181.5q0 -73 -20.5 -148.5t-59 -142.5t-104 -109.5t-145.5 -42.5q-138 0 -201 100l56 56q43 -82 150 -82q47 0 86 22t66 59.5t45 79t30 89.5q3 9 6 21q-31 -34 -84 -60t-108 -26q-89 0 -146 48t-57 128q0 103 75 178.5t183 75.5z
M320 487q-72 0 -120.5 -50.5t-48.5 -118.5q0 -54 41 -86t107 -32q93 0 169 83q2 18 2 47q0 71 -40 114t-110 43z" />
    <glyph glyph-name="colonmonetary.onum" unicode="&#xf64d;" horiz-adv-x="582" 
d="M179 -53l32 58q-25 8 -51 23l-45 -81h-43l58 104q-83 70 -83 187q0 132 96.5 228t229.5 96q21 0 40 -3l23 40h43l-27 -49q29 -8 52 -21l39 70h43l-51 -91q37 -31 58 -71l-68 -29q-12 20 -27 34l-213 -382q18 -3 37 -3q92 0 158 71l57 -39q-93 -101 -218 -101q-31 0 -70 7
l-27 -48h-43zM128 242q0 -71 41 -120l208 371h-6q-96 0 -169.5 -73.5t-73.5 -177.5zM198 95q18 -14 49 -26l221 396q-27 17 -52 22z" />
    <glyph glyph-name="Euro.onum" unicode="&#xf64e;" horiz-adv-x="610" 
d="M424 311h-259q-9 -33 -9 -69v-4h252l-10 -48h-236q17 -62 67.5 -97.5t120.5 -35.5q92 0 158 71l57 -39q-93 -101 -218 -101q-107 0 -179.5 55t-88.5 147h-61l11 48h46q0 35 8 73h-39l11 48h44q37 90 119.5 146.5t182.5 56.5q74 0 133 -34t87 -91l-68 -29q-22 38 -64 61.5
t-90 23.5q-66 0 -124 -37t-90 -97h250z" />
    <glyph glyph-name="florin.onum" unicode="&#xf64f;" horiz-adv-x="367" 
d="M52 -119h-83l74 334h-50v57h62l30 135q34 154 152 154q53 0 86 -32l-33 -60q-14 18 -42 18q-59 0 -80 -90l-28 -125h106v-57h-119z" />
    <glyph glyph-name="numbersign.onum" unicode="&#xf650;" horiz-adv-x="496" 
d="M507 394l-24 -47h-88l-78 -141h90l-26 -47h-91l-87 -159h-57l88 159h-91l-87 -159h-57l88 159h-85l26 47h86l78 141h-87l25 47h88l87 156h57l-88 -156h90l88 156h57l-88 -156h86zM337 347h-88l-79 -141h90z" />
    <glyph glyph-name="sterling.onum" unicode="&#xf651;" horiz-adv-x="425" 
d="M9 224l11 48h77q-29 64 -29 104q0 78 58 131.5t138 53.5q60 0 108.5 -28t64.5 -76l-65 -26q-9 35 -38.5 53.5t-65.5 18.5q-51 0 -87.5 -35.5t-36.5 -89.5q0 -12 1.5 -22.5t6.5 -24.5t6.5 -18t9.5 -23l9 -18h131l-10 -48h-105q2 -16 2 -23q0 -33 -24.5 -70t-52.5 -53
q10 3 22 3q29 0 71 -14t63 -14q44 0 73 31l21 -56q-37 -39 -100 -39q-38 0 -88 17t-84 17q-37 0 -90 -31l-15 54q59 24 96 63t37 80q0 11 -6 35h-109z" />
    <glyph glyph-name="yen.onum" unicode="&#xf652;" horiz-adv-x="547" 
d="M260 0h-78l24 113h-212l11 48h212l16 71h-213l11 47h179l-136 271h89l123 -250l229 250h92l-253 -271h176l-11 -47h-208l-16 -71h208l-10 -48h-209z" />
    <glyph glyph-name="cent.onum" unicode="&#xf654;" horiz-adv-x="582" 
d="M319 -12h-9l-18 -80h-59l19 86q-94 18 -149.5 83.5t-55.5 160.5q0 132 96.5 228t229.5 96h5l13 57h59l-15 -64q53 -12 94.5 -43t63.5 -75l-68 -29q-35 59 -105 78l-95 -429q90 2 155 71l57 -39q-93 -101 -218 -101zM128 242q0 -68 38 -116t101 -63l96 430
q-94 -4 -164.5 -76.5t-70.5 -174.5z" />
    <glyph glyph-name="zero.dnom" unicode="&#xf655;" 
d="M352 250q0 -37 -11 -78.5t-32.5 -83t-61 -68.5t-90.5 -27q-68 0 -104.5 43t-36.5 113q0 37 10.5 78.5t32 83t61 68.5t90.5 27q68 0 105 -43t37 -113zM291 252q0 105 -83 105q-35 0 -61.5 -22t-41 -56.5t-21.5 -68t-7 -63.5q0 -105 82 -105q45 0 77 39t43.5 84t11.5 87z
" />
    <glyph glyph-name="one.dnom" unicode="&#xf656;" horiz-adv-x="235" 
d="M121 0h-60l69 318l-78 -66l-29 38l133 110h53z" />
    <glyph glyph-name="two.dnom" unicode="&#xf657;" 
d="M288 0h-292l11 49q156 94 219 144t63 101q0 30 -24.5 46.5t-60.5 16.5q-69 0 -112 -46l-28 39q56 56 142 56q59 0 101.5 -27.5t42.5 -81.5q0 -60 -63.5 -116t-189.5 -132h201z" />
    <glyph glyph-name="three.dnom" unicode="&#xf658;" 
d="M314 114q0 -48 -40 -84.5t-107 -36.5q-55 0 -97 19t-63 54l40 35q39 -59 118 -59q41 0 65 23t24 57q0 26 -27.5 42.5t-72.5 16.5q-23 0 -30 -1l11 50q28 -2 61 -2q42 0 67 18t25 50q0 28 -27.5 44.5t-65.5 16.5q-58 0 -108 -43l-23 39q58 53 135 53q65 0 107.5 -26.5
t42.5 -75.5q0 -44 -31 -72t-81 -32q32 -6 54.5 -29t22.5 -57z" />
    <glyph glyph-name="four.dnom" unicode="&#xf659;" 
d="M320 100h-57l-22 -100h-60l22 100h-196l9 45l230 255h83l-56 -251h57zM213 149l44 194l-179 -194h135z" />
    <glyph glyph-name="five.dnom" unicode="&#xf65a;" 
d="M320 145q0 -65 -45 -108.5t-115 -43.5q-52 0 -92.5 19t-60.5 53l43 36q35 -59 109 -59q44 0 72 27t28 67q0 34 -25 52.5t-62 18.5q-50 0 -90 -37l-40 16l48 214h261l-11 -49h-201l-28 -130q37 32 88 32q50 0 85.5 -29.5t35.5 -78.5z" />
    <glyph glyph-name="six.dnom" unicode="&#xf65b;" 
d="M326 143q0 -61 -42.5 -105.5t-114.5 -44.5t-110.5 40t-38.5 107q0 108 58.5 187t144.5 79t129 -49l-37 -41q-29 41 -93 41q-61 0 -100 -58.5t-39 -100.5v-4q54 61 116 61q54 0 90.5 -29.5t36.5 -82.5zM264 136q0 34 -24.5 52.5t-64.5 18.5q-50 0 -95 -55q-2 -6 -2 -22
q0 -40 24.5 -64t65.5 -24q44 0 70 28t26 66z" />
    <glyph glyph-name="seven.dnom" unicode="&#xf65c;" horiz-adv-x="362" 
d="M348 359l-245 -359h-68l243 351h-223l12 49h290z" />
    <glyph glyph-name="eight.dnom" unicode="&#xf65d;" 
d="M316 105q0 -48 -42 -80t-109 -32t-112.5 28t-45.5 78q0 42 35.5 74t90.5 38q-75 27 -75 86q0 52 43 80.5t101 28.5q59 0 105 -26t46 -73q0 -41 -29.5 -70.5t-87.5 -36.5q33 -12 56.5 -36.5t23.5 -58.5zM292 296q0 30 -25 46t-63 16q-37 0 -62.5 -18.5t-25.5 -48.5
q0 -27 25.5 -44t48.5 -22q39 3 70.5 20t31.5 51zM257 110q0 25 -21.5 45t-54.5 29q-51 -4 -82 -25t-31 -54q0 -28 28 -46.5t65 -18.5q40 0 68 20t28 50z" />
    <glyph glyph-name="nine.dnom" unicode="&#xf65e;" 
d="M43 257q0 61 42.5 105.5t114.5 44.5t110.5 -40t38.5 -107q0 -108 -58.5 -187t-144.5 -79t-129 49l36 41q29 -41 94 -41q61 0 100 58.5t39 100.5v4q-54 -61 -117 -61q-53 0 -89.5 29.5t-36.5 82.5zM105 264q0 -34 24 -52.5t64 -18.5q51 0 96 55q2 6 2 22q0 40 -24.5 64
t-65.5 24q-44 0 -70 -28t-26 -66z" />
    <glyph glyph-name="zero.numr" unicode="&#xf661;" 
d="M411 517q0 -37 -11 -78.5t-32.5 -83t-61 -68.5t-90.5 -27q-68 0 -104.5 43t-36.5 113q0 37 10.5 78.5t32 83t61 68.5t90.5 27q68 0 105 -43t37 -113zM350 519q0 105 -83 105q-35 0 -61.5 -22t-41 -56.5t-21.5 -68t-7 -63.5q0 -105 82 -105q45 0 77 39t43.5 84t11.5 87z
" />
    <glyph glyph-name="one.numr" unicode="&#xf662;" horiz-adv-x="235" 
d="M180 267h-60l69 318l-78 -66l-29 38l133 110h53z" />
    <glyph glyph-name="two.numr" unicode="&#xf663;" 
d="M347 267h-292l11 49q156 94 219 144t63 101q0 30 -24.5 46.5t-60.5 16.5q-69 0 -112 -46l-28 39q56 56 142 56q59 0 101.5 -27.5t42.5 -81.5q0 -60 -63.5 -116t-189.5 -132h201z" />
    <glyph glyph-name="three.numr" unicode="&#xf664;" 
d="M373 381q0 -48 -40 -84.5t-107 -36.5q-55 0 -97 19t-63 54l40 35q39 -59 118 -59q41 0 65 23t24 57q0 26 -27.5 42.5t-72.5 16.5q-23 0 -30 -1l11 50q28 -2 61 -2q42 0 67 18t25 50q0 28 -27.5 44.5t-65.5 16.5q-58 0 -108 -43l-23 39q58 53 135 53q65 0 107.5 -26.5
t42.5 -75.5q0 -44 -31 -72t-81 -32q32 -6 54.5 -29t22.5 -57z" />
    <glyph glyph-name="four.numr" unicode="&#xf665;" 
d="M379 367h-57l-22 -100h-60l22 100h-196l9 45l230 255h83l-56 -251h57zM272 416l44 194l-179 -194h135z" />
    <glyph glyph-name="five.numr" unicode="&#xf666;" 
d="M379 412q0 -65 -45 -108.5t-115 -43.5q-52 0 -92.5 19t-60.5 53l43 36q35 -59 109 -59q44 0 72 27t28 67q0 34 -25 52.5t-62 18.5q-50 0 -90 -37l-40 16l48 214h261l-11 -49h-201l-28 -130q37 32 88 32q50 0 85.5 -29.5t35.5 -78.5z" />
    <glyph glyph-name="six.numr" unicode="&#xf667;" 
d="M385 410q0 -61 -42.5 -105.5t-114.5 -44.5t-110.5 40t-38.5 107q0 108 58.5 187t144.5 79t129 -49l-37 -41q-29 41 -93 41q-61 0 -100 -58.5t-39 -100.5v-4q54 61 116 61q54 0 90.5 -29.5t36.5 -82.5zM323 403q0 34 -24.5 52.5t-64.5 18.5q-50 0 -95 -55q-2 -6 -2 -22
q0 -40 24.5 -64t65.5 -24q44 0 70 28t26 66z" />
    <glyph glyph-name="seven.numr" unicode="&#xf668;" horiz-adv-x="362" 
d="M407 626l-245 -359h-68l243 351h-223l12 49h290z" />
    <glyph glyph-name="eight.numr" unicode="&#xf669;" 
d="M375 372q0 -48 -42 -80t-109 -32t-112.5 28t-45.5 78q0 42 35.5 74t90.5 38q-75 27 -75 86q0 52 43 80.5t101 28.5q59 0 105 -26t46 -73q0 -41 -29.5 -70.5t-87.5 -36.5q33 -12 56.5 -36.5t23.5 -58.5zM351 563q0 30 -25 46t-63 16q-37 0 -62.5 -18.5t-25.5 -48.5
q0 -27 25.5 -44t48.5 -22q39 3 70.5 20t31.5 51zM316 377q0 25 -21.5 45t-54.5 29q-51 -4 -82 -25t-31 -54q0 -28 28 -46.5t65 -18.5q40 0 68 20t28 50z" />
    <glyph glyph-name="nine.numr" unicode="&#xf66a;" 
d="M102 524q0 61 42.5 105.5t114.5 44.5t110.5 -40t38.5 -107q0 -108 -58.5 -187t-144.5 -79t-129 49l36 41q29 -41 94 -41q61 0 100 58.5t39 100.5v4q-54 -61 -117 -61q-53 0 -89.5 29.5t-36.5 82.5zM164 531q0 -34 24 -52.5t64 -18.5q51 0 96 55q2 6 2 22q0 40 -24.5 64
t-65.5 24q-44 0 -70 -28t-26 -66z" />
    <glyph glyph-name="Abreve.smcp" unicode="&#xf66d;" horiz-adv-x="572" 
d="M307 550h93l111 -550h-85l-25 120h-281l-77 -120h-90zM392 189l-54 279l-179 -279h233zM562 691q-85 -88 -194 -88q-53 0 -94 23.5t-63 64.5l42 32q36 -72 123 -72q88 0 154 72z" />
    <glyph glyph-name="Amacron.smcp" unicode="&#xf66e;" horiz-adv-x="572" 
d="M307 550h93l111 -550h-85l-25 120h-281l-77 -120h-90zM392 189l-54 279l-179 -279h233zM553 628h-362l11 48h362z" />
    <glyph glyph-name="Aogonek.smcp" unicode="&#xf66f;" horiz-adv-x="572" 
d="M307 550h93l111 -550q-102 -44 -102 -107q0 -40 43 -40q34 0 55 41l32 -24q-36 -56 -91 -56q-36 0 -59 19t-23 53q0 68 70 114h-10l-25 120h-281l-77 -120h-90zM392 189l-54 279l-179 -279h233z" />
    <glyph glyph-name="AEacute.smcp" unicode="&#xf670;" horiz-adv-x="821" 
d="M694 750l-201 -144h-59l180 144h80zM716 0h-383l26 120h-214l-102 -120h-91l473 550h412l-15 -69h-305l-37 -165h299l-15 -69h-299l-39 -178h305zM374 189l62 279l-237 -279h175z" />
    <glyph glyph-name="Cacute.smcp" unicode="&#xf671;" horiz-adv-x="582" 
d="M319 -12q-121 0 -196.5 69t-75.5 181q0 132 96.5 228t229.5 96q74 0 133 -34t87 -91l-68 -29q-22 38 -64 61.5t-90 23.5q-96 0 -169.5 -73.5t-73.5 -177.5q0 -83 54.5 -134t139.5 -51q92 0 158 71l57 -39q-93 -101 -218 -101zM614 750l-201 -144h-59l180 144h80z" />
    <glyph glyph-name="Ccaron.smcp" unicode="&#xf672;" horiz-adv-x="582" 
d="M319 -12q-121 0 -196.5 69t-75.5 181q0 132 96.5 228t229.5 96q74 0 133 -34t87 -91l-68 -29q-22 38 -64 61.5t-90 23.5q-96 0 -169.5 -73.5t-73.5 -177.5q0 -83 54.5 -134t139.5 -51q92 0 158 71l57 -39q-93 -101 -218 -101zM460 606h-72l-66 144h49l59 -106l104 106h53
z" />
    <glyph glyph-name="Ccircumflex.smcp" unicode="&#xf673;" horiz-adv-x="582" 
d="M319 -12q-121 0 -196.5 69t-75.5 181q0 132 96.5 228t229.5 96q74 0 133 -34t87 -91l-68 -29q-22 38 -64 61.5t-90 23.5q-96 0 -169.5 -73.5t-73.5 -177.5q0 -83 54.5 -134t139.5 -51q92 0 158 71l57 -39q-93 -101 -218 -101zM555 606h-49l-60 106l-103 -106h-53l127 144
h72z" />
    <glyph glyph-name="Cdotaccent.smcp" unicode="&#xf674;" horiz-adv-x="582" 
d="M319 -12q-121 0 -196.5 69t-75.5 181q0 132 96.5 228t229.5 96q74 0 133 -34t87 -91l-68 -29q-22 38 -64 61.5t-90 23.5q-96 0 -169.5 -73.5t-73.5 -177.5q0 -83 54.5 -134t139.5 -51q92 0 158 71l57 -39q-93 -101 -218 -101zM485 681q0 -21 -15.5 -37t-36.5 -16
q-18 0 -30 12t-12 30q0 21 15.5 36.5t36.5 15.5q18 0 30 -11.5t12 -29.5z" />
    <glyph glyph-name="Dcaron.smcp" unicode="&#xf675;" horiz-adv-x="615" 
d="M221 0h-212l121 550h177q115 0 189 -68t74 -169q0 -57 -21 -111t-62 -100t-110 -74t-156 -28zM236 69q118 0 185 72t67 167q0 77 -52.5 125t-139.5 48h-102l-91 -412h133zM414 606h-72l-66 144h49l59 -106l104 106h53z" />
    <glyph glyph-name="Dcroat.smcp" unicode="&#xf676;" horiz-adv-x="626" 
d="M231 0h-212l55 251h-62l12 57h62l54 242h177q115 0 189 -68t74 -169q0 -57 -21 -111t-62 -100t-110 -74t-156 -28zM246 69q118 0 185 72t67 167q0 77 -52.5 125t-139.5 48h-102l-39 -173h133l-12 -57h-133l-40 -182h133z" />
    <glyph glyph-name="Ebreve.smcp" unicode="&#xf677;" horiz-adv-x="509" 
d="M403 0h-382l121 550h382l-15 -69h-303l-37 -165h298l-15 -69h-298l-40 -178h304zM540 691q-85 -88 -194 -88q-53 0 -94 23.5t-63 64.5l42 32q36 -72 123 -72q88 0 154 72z" />
    <glyph glyph-name="Ecaron.smcp" unicode="&#xf678;" horiz-adv-x="509" 
d="M403 0h-382l121 550h382l-15 -69h-303l-37 -165h298l-15 -69h-298l-40 -178h304zM385 606h-72l-66 144h49l59 -106l104 106h53z" />
    <glyph glyph-name="Edotaccent.smcp" unicode="&#xf679;" horiz-adv-x="509" 
d="M403 0h-382l121 550h382l-15 -69h-303l-37 -165h298l-15 -69h-298l-40 -178h304zM414 681q0 -21 -16 -37t-36 -16q-18 0 -30 12t-12 30q0 21 15.5 36.5t36.5 15.5q18 0 30 -11.5t12 -29.5z" />
    <glyph glyph-name="Emacron.smcp" unicode="&#xf67a;" horiz-adv-x="509" 
d="M403 0h-382l121 550h382l-15 -69h-303l-37 -165h298l-15 -69h-298l-40 -178h304zM530 628h-362l11 48h362z" />
    <glyph glyph-name="Eng.smcp" unicode="&#xf67b;" horiz-adv-x="632" 
d="M298 -196q-113 0 -159 76l50 53q33 -59 104 -59q104 0 128 112l3 14l-228 438l-97 -438h-78l121 550h82l227 -429l95 429h78l-126 -572q-39 -174 -200 -174z" />
    <glyph glyph-name="Eogonek.smcp" unicode="&#xf67c;" horiz-adv-x="509" 
d="M399 -106l32 -24q-36 -56 -91 -56q-36 0 -59 19t-23 53q0 68 70 114h-307l121 550h382l-15 -69h-303l-37 -165h298l-15 -69h-298l-40 -178h304l-15 -69q-102 -44 -102 -107q0 -40 43 -40q34 0 55 41z" />
    <glyph glyph-name="Gbreve.smcp" unicode="&#xf67d;" horiz-adv-x="626" 
d="M321 -12q-118 0 -196.5 67.5t-78.5 178.5q0 131 94.5 229.5t233.5 98.5q71 0 131 -32t92 -84l-68 -35q-22 34 -65.5 57.5t-94.5 23.5q-101 0 -170.5 -75.5t-69.5 -177.5q0 -80 55.5 -131t139.5 -51q75 0 130 38l29 127h-170l14 65h248l-50 -231q-94 -68 -204 -68z
M617 691q-85 -88 -194 -88q-53 0 -94 23.5t-63 64.5l42 32q36 -72 123 -72q88 0 154 72z" />
    <glyph glyph-name="Gcircumflex.smcp" unicode="&#xf67e;" horiz-adv-x="626" 
d="M321 -12q-118 0 -196.5 67.5t-78.5 178.5q0 131 94.5 229.5t233.5 98.5q71 0 131 -32t92 -84l-68 -35q-22 34 -65.5 57.5t-94.5 23.5q-101 0 -170.5 -75.5t-69.5 -177.5q0 -80 55.5 -131t139.5 -51q75 0 130 38l29 127h-170l14 65h248l-50 -231q-94 -68 -204 -68z
M554 606h-49l-60 106l-103 -106h-53l127 144h72z" />
    <glyph glyph-name="Gcommaaccent.smcp" unicode="&#xf67f;" horiz-adv-x="626" 
d="M321 -12q-118 0 -196.5 67.5t-78.5 178.5q0 131 94.5 229.5t233.5 98.5q71 0 131 -32t92 -84l-68 -35q-22 34 -65.5 57.5t-94.5 23.5q-101 0 -170.5 -75.5t-69.5 -177.5q0 -80 55.5 -131t139.5 -51q75 0 130 38l29 127h-170l14 65h248l-50 -231q-94 -68 -204 -68z
M313 -121q0 -41 -30 -82t-72 -63l-27 28q26 13 47.5 34.5t28.5 43.5q-1 -1 -7 -1q-15 0 -25.5 11t-10.5 28q0 21 15.5 36t35.5 15t32.5 -13t12.5 -37z" />
    <glyph glyph-name="Gdotaccent.smcp" unicode="&#xf680;" horiz-adv-x="626" 
d="M321 -12q-118 0 -196.5 67.5t-78.5 178.5q0 131 94.5 229.5t233.5 98.5q71 0 131 -32t92 -84l-68 -35q-22 34 -65.5 57.5t-94.5 23.5q-101 0 -170.5 -75.5t-69.5 -177.5q0 -80 55.5 -131t139.5 -51q75 0 130 38l29 127h-170l14 65h248l-50 -231q-94 -68 -204 -68z
M484 681q0 -21 -16 -37t-36 -16q-18 0 -30 12t-12 30q0 21 15.5 36.5t36.5 15.5q18 0 30 -11.5t12 -29.5z" />
    <glyph glyph-name="Hcircumflex.smcp" unicode="&#xf681;" horiz-adv-x="635" 
d="M506 0h-77l54 248h-329l-54 -248h-79l121 550h79l-52 -233h329l52 233h77zM528 606h-49l-60 106l-103 -106h-53l127 144h72z" />
    <glyph glyph-name="Hbar.smcp" unicode="&#xf682;" horiz-adv-x="655" 
d="M516 0h-77l54 248h-329l-54 -248h-79l90 411h-73l10 48h74l20 91h79l-21 -91h329l21 91h77l-20 -91h73l-11 -48h-73zM179 317h329l21 94h-329z" />
    <glyph glyph-name="Ibreve.smcp" unicode="&#xf683;" horiz-adv-x="227" 
d="M99 0h-79l121 550h79zM385 691q-85 -88 -194 -88q-53 0 -94 23.5t-63 64.5l42 32q36 -72 123 -72q88 0 154 72z" />
    <glyph glyph-name="IJ.smcp" unicode="&#xf684;" horiz-adv-x="651" 
d="M100 0h-79l121 550h79zM358 -12q-112 0 -160 75l51 53q32 -59 103 -59q103 0 128 113l84 380h78l-85 -386q-20 -91 -69 -133.5t-130 -42.5z" />
    <glyph glyph-name="Imacron.smcp" unicode="&#xf685;" horiz-adv-x="227" 
d="M99 0h-79l121 550h79zM381 628h-362l11 48h362z" />
    <glyph glyph-name="Iogonek.smcp" unicode="&#xf686;" horiz-adv-x="227" 
d="M95 -106l32 -24q-36 -56 -91 -56q-36 0 -59 19t-23 53q0 67 70 114h-4l121 550h79l-121 -550q-102 -44 -102 -107q0 -40 43 -40q34 0 55 41z" />
    <glyph glyph-name="Itilde.smcp" unicode="&#xf687;" horiz-adv-x="227" 
d="M99 0h-79l121 550h79zM263 591q-25 0 -42 14.5t-24.5 31.5t-20.5 31.5t-31 14.5q-43 0 -62 -86h-46q27 134 114 134q25 0 42 -14.5t24.5 -31.5t21 -31.5t31.5 -14.5q42 0 62 86h46q-29 -134 -115 -134z" />
    <glyph glyph-name="Jcircumflex.smcp" unicode="&#xf688;" horiz-adv-x="422" 
d="M129 -12q-112 0 -160 75l51 53q32 -59 103 -59q103 0 128 113l84 380h78l-85 -386q-20 -91 -69 -133.5t-130 -42.5zM519 606h-49l-60 106l-103 -106h-53l127 144h72z" />
    <glyph glyph-name="Kcommaaccent.smcp" unicode="&#xf689;" horiz-adv-x="534" 
d="M466 0h-95l-163 244l-68 -59l-40 -185h-79l121 550h79l-60 -272l306 272h100l-300 -261zM240 -121q0 -41 -30 -82t-72 -63l-27 28q26 13 47.5 34.5t28.5 43.5q-1 -1 -7 -1q-15 0 -25.5 11t-10.5 28q0 21 15.5 36t35.5 15t32.5 -13t12.5 -37z" />
    <glyph glyph-name="Lacute.smcp" unicode="&#xf68a;" horiz-adv-x="458" 
d="M366 0h-345l121 550h79l-107 -481h267zM524 750l-201 -144h-59l180 144h80z" />
    <glyph glyph-name="Lcaron.smcp" unicode="&#xf68b;" horiz-adv-x="458" 
d="M366 0h-345l121 550h79l-107 -481h267zM388 510q0 -41 -30 -82t-72 -63l-27 28q26 13 47.5 34.5t28.5 43.5q-1 -1 -7 -1q-15 0 -25.5 11t-10.5 28q0 21 15.5 36t35.5 15t32.5 -13t12.5 -37z" />
    <glyph glyph-name="Lcommaaccent.smcp" unicode="&#xf68c;" horiz-adv-x="458" 
d="M366 0h-345l121 550h79l-107 -481h267zM215 -121q0 -41 -30 -82t-72 -63l-27 28q26 13 47.5 34.5t28.5 43.5q-1 -1 -7 -1q-15 0 -25.5 11t-10.5 28q0 21 15.5 36t35.5 15t32.5 -13t12.5 -37z" />
    <glyph glyph-name="Ldot.smcp" unicode="&#xf68d;" horiz-adv-x="472" 
d="M366 0h-345l121 550h79l-107 -481h267zM360 239q-21 0 -35.5 14.5t-14.5 35.5q0 25 17.5 42.5t42.5 17.5q21 0 35.5 -15t14.5 -36q0 -25 -17.5 -42t-42.5 -17z" />
    <glyph glyph-name="Nacute.smcp" unicode="&#xf68e;" horiz-adv-x="632" 
d="M503 0h-79l-228 438l-97 -438h-78l121 550h82l227 -429l95 429h78zM587 750l-201 -144h-59l180 144h80z" />
    <glyph glyph-name="Ncaron.smcp" unicode="&#xf68f;" horiz-adv-x="632" 
d="M503 0h-79l-228 438l-97 -438h-78l121 550h82l227 -429l95 429h78zM433 606h-72l-66 144h49l59 -106l104 106h53z" />
    <glyph glyph-name="Ncommaaccent.smcp" unicode="&#xf690;" horiz-adv-x="632" 
d="M503 0h-79l-228 438l-97 -438h-78l121 550h82l227 -429l95 429h78zM283 -121q0 -41 -30 -82t-72 -63l-27 28q26 13 47.5 34.5t28.5 43.5q-1 -1 -7 -1q-15 0 -25.5 11t-10.5 28q0 21 15.5 36t35.5 15t32.5 -13t12.5 -37z" />
    <glyph glyph-name="Obreve.smcp" unicode="&#xf691;" horiz-adv-x="662" 
d="M312 -12q-121 0 -193 70t-72 181q0 130 91 226.5t224 96.5q121 0 193 -70t72 -181q0 -130 -91 -226.5t-224 -96.5zM314 57q101 0 167 75t66 175q0 81 -50 133.5t-136 52.5q-101 0 -167.5 -75t-66.5 -175q0 -81 50.5 -133.5t136.5 -52.5zM606 691q-85 -88 -194 -88
q-53 0 -94 23.5t-63 64.5l42 32q36 -72 123 -72q88 0 154 72z" />
    <glyph glyph-name="Ohungarumlaut.smcp" unicode="&#xf692;" horiz-adv-x="662" 
d="M312 -12q-121 0 -193 70t-72 181q0 130 91 226.5t224 96.5q121 0 193 -70t72 -181q0 -130 -91 -226.5t-224 -96.5zM314 57q101 0 167 75t66 175q0 81 -50 133.5t-136 52.5q-101 0 -167.5 -75t-66.5 -175q0 -81 50.5 -133.5t136.5 -52.5zM499 750l-147 -144h-50l126 144
h71zM641 750l-147 -144h-50l126 144h71z" />
    <glyph glyph-name="Omacron.smcp" unicode="&#xf693;" horiz-adv-x="662" 
d="M312 -12q-121 0 -193 70t-72 181q0 130 91 226.5t224 96.5q121 0 193 -70t72 -181q0 -130 -91 -226.5t-224 -96.5zM314 57q101 0 167 75t66 175q0 81 -50 133.5t-136 52.5q-101 0 -167.5 -75t-66.5 -175q0 -81 50.5 -133.5t136.5 -52.5zM598 635h-362l11 48h362z" />
    <glyph glyph-name="Oslashacute.smcp" unicode="&#xf694;" horiz-adv-x="662" 
d="M312 -12q-101 0 -170 50l-36 -38h-67l67 70q-59 68 -59 169q0 130 91 226.5t224 96.5q99 0 167 -49l36 37h67l-66 -69q61 -69 61 -170q0 -130 -91 -226.5t-224 -96.5zM314 57q101 0 167 75t66 175q0 69 -36 117l-316 -331q49 -36 119 -36zM127 243q0 -66 34 -115l316 330
q-48 35 -116 35q-101 0 -167.5 -75t-66.5 -175zM605 750l-201 -144h-59l180 144h80z" />
    <glyph glyph-name="Racute.smcp" unicode="&#xf695;" horiz-adv-x="545" 
d="M446 0h-90l-96 214h-113l-47 -214h-79l121 550h213q78 0 125.5 -41t47.5 -104q0 -74 -48.5 -128t-140.5 -59zM312 282h8q59 0 92.5 33.5t33.5 83.5q0 37 -28 59.5t-72 22.5h-140l-44 -199h150zM537 750l-201 -144h-59l180 144h80z" />
    <glyph glyph-name="Rcaron.smcp" unicode="&#xf696;" horiz-adv-x="545" 
d="M446 0h-90l-96 214h-113l-47 -214h-79l121 550h213q78 0 125.5 -41t47.5 -104q0 -74 -48.5 -128t-140.5 -59zM312 282h8q59 0 92.5 33.5t33.5 83.5q0 37 -28 59.5t-72 22.5h-140l-44 -199h150zM382 606h-72l-66 144h49l59 -106l104 106h53z" />
    <glyph glyph-name="Rcommaaccent.smcp" unicode="&#xf697;" horiz-adv-x="545" 
d="M446 0h-90l-96 214h-113l-47 -214h-79l121 550h213q78 0 125.5 -41t47.5 -104q0 -74 -48.5 -128t-140.5 -59zM312 282h8q59 0 92.5 33.5t33.5 83.5q0 37 -28 59.5t-72 22.5h-140l-44 -199h150zM238 -121q0 -41 -30 -82t-72 -63l-27 28q26 13 47.5 34.5t28.5 43.5
q-1 -1 -7 -1q-15 0 -25.5 11t-10.5 28q0 21 15.5 36t35.5 15t32.5 -13t12.5 -37z" />
    <glyph glyph-name="Sacute.smcp" unicode="&#xf698;" horiz-adv-x="504" 
d="M240 -12q-162 0 -237 97l53 56q27 -38 77.5 -61t110.5 -23q65 0 94.5 28.5t29.5 69.5q0 30 -29.5 51.5t-71.5 36.5t-84 32t-71.5 49t-29.5 77q0 66 60 113.5t145 47.5q67 0 123 -25t87 -65l-51 -53q-24 33 -69.5 53.5t-92.5 20.5q-50 0 -84.5 -25.5t-34.5 -63.5
q0 -28 29.5 -47.5t71.5 -34t84 -32t71.5 -51.5t29.5 -82q0 -69 -54 -119t-157 -50zM525 750l-201 -144h-59l180 144h80z" />
    <glyph glyph-name="Scedilla.smcp" unicode="&#xf699;" horiz-adv-x="504" 
d="M167 -191q-68 0 -108 38l27 36q33 -35 83 -35q29 0 45 13t16 34q0 30 -36 30q-21 0 -36 -17l-29 19l40 67q-112 19 -166 91l53 56q27 -38 77.5 -61t110.5 -23q65 0 94.5 28.5t29.5 69.5q0 30 -29.5 51.5t-71.5 36.5t-84 32t-71.5 49t-29.5 77q0 66 60 113.5t145 47.5
q67 0 123 -25t87 -65l-51 -53q-24 33 -69.5 53.5t-92.5 20.5q-50 0 -84.5 -25.5t-34.5 -63.5q0 -28 29.5 -47.5t71.5 -34t84 -32t71.5 -51.5t29.5 -82q0 -69 -54 -119t-157 -50q-5 0 -15 0.5t-15 0.5l-26 -44q12 11 33 11q26 0 42 -15.5t16 -42.5q0 -40 -30 -64.5t-78 -24.5
z" />
    <glyph glyph-name="Scircumflex.smcp" unicode="&#xf69a;" horiz-adv-x="504" 
d="M240 -12q-162 0 -237 97l53 56q27 -38 77.5 -61t110.5 -23q65 0 94.5 28.5t29.5 69.5q0 30 -29.5 51.5t-71.5 36.5t-84 32t-71.5 49t-29.5 77q0 66 60 113.5t145 47.5q67 0 123 -25t87 -65l-51 -53q-24 33 -69.5 53.5t-92.5 20.5q-50 0 -84.5 -25.5t-34.5 -63.5
q0 -28 29.5 -47.5t71.5 -34t84 -32t71.5 -51.5t29.5 -82q0 -69 -54 -119t-157 -50zM466 606h-49l-60 106l-103 -106h-53l127 144h72z" />
    <glyph glyph-name="Scommaaccent.smcp" unicode="&#xf69b;" horiz-adv-x="504" 
d="M240 -12q-162 0 -237 97l53 56q27 -38 77.5 -61t110.5 -23q65 0 94.5 28.5t29.5 69.5q0 30 -29.5 51.5t-71.5 36.5t-84 32t-71.5 49t-29.5 77q0 66 60 113.5t145 47.5q67 0 123 -25t87 -65l-51 -53q-24 33 -69.5 53.5t-92.5 20.5q-50 0 -84.5 -25.5t-34.5 -63.5
q0 -28 29.5 -47.5t71.5 -34t84 -32t71.5 -51.5t29.5 -82q0 -69 -54 -119t-157 -50zM224 -121q0 -41 -30 -82t-72 -63l-27 28q26 13 47.5 34.5t28.5 43.5q-1 -1 -7 -1q-15 0 -25.5 11t-10.5 28q0 21 15.5 36t35.5 15t32.5 -13t12.5 -37z" />
    <glyph glyph-name="Tbar.smcp" unicode="&#xf69c;" horiz-adv-x="472" 
d="M221 0h-78l52 241h-115l10 48h116l42 192h-170l15 69h419l-15 -69h-170l-43 -192h118l-11 -48h-117z" />
    <glyph glyph-name="Tcaron.smcp" unicode="&#xf69d;" horiz-adv-x="472" 
d="M221 0h-78l105 481h-170l15 69h419l-15 -69h-170zM354 606h-72l-66 144h49l59 -106l104 106h53z" />
    <glyph glyph-name="Tcommaaccent.smcp" unicode="&#xf69e;" horiz-adv-x="472" 
d="M221 0h-78l105 481h-170l15 69h419l-15 -69h-170zM204 -121q0 -41 -30 -82t-72 -63l-27 28q26 13 47.5 34.5t28.5 43.5q-1 -1 -7 -1q-15 0 -25.5 11t-10.5 28q0 21 15.5 36t35.5 15t32.5 -13t12.5 -37z" />
    <glyph glyph-name="Ubreve.smcp" unicode="&#xf69f;" horiz-adv-x="623" 
d="M295 -12q-111 0 -172 48.5t-61 131.5q0 19 5 44l75 338h79l-74 -333q-4 -24 -4 -36q0 -60 40.5 -92t110.5 -32q134 0 168 160l74 333h79l-75 -338q-25 -112 -82.5 -168t-162.5 -56zM585 691q-85 -88 -194 -88q-53 0 -94 23.5t-63 64.5l42 32q36 -72 123 -72q88 0 154 72z
" />
    <glyph glyph-name="Uhungarumlaut.smcp" unicode="&#xf6a0;" horiz-adv-x="623" 
d="M295 -12q-111 0 -172 48.5t-61 131.5q0 19 5 44l75 338h79l-74 -333q-4 -24 -4 -36q0 -60 40.5 -92t110.5 -32q134 0 168 160l74 333h79l-75 -338q-25 -112 -82.5 -168t-162.5 -56zM477 750l-147 -144h-50l126 144h71zM619 750l-147 -144h-50l126 144h71z" />
    <glyph glyph-name="Umacron.smcp" unicode="&#xf6a1;" horiz-adv-x="623" 
d="M295 -12q-111 0 -172 48.5t-61 131.5q0 19 5 44l75 338h79l-74 -333q-4 -24 -4 -36q0 -60 40.5 -92t110.5 -32q134 0 168 160l74 333h79l-75 -338q-25 -112 -82.5 -168t-162.5 -56zM579 628h-362l11 48h362z" />
    <glyph glyph-name="Uogonek.smcp" unicode="&#xf6a2;" horiz-adv-x="623" 
d="M377 -106l32 -24q-36 -56 -91 -56q-36 0 -59 19t-23 53q0 59 54 102q-109 1 -168.5 49t-59.5 131q0 19 5 44l75 338h79l-74 -333q-4 -24 -4 -36q0 -60 40.5 -92t110.5 -32q134 0 168 160l74 333h79l-75 -338q-39 -176 -161 -213q-100 -44 -100 -106q0 -40 43 -40
q34 0 55 41z" />
    <glyph glyph-name="Uring.smcp" unicode="&#xf6a3;" horiz-adv-x="623" 
d="M295 -12q-111 0 -172 48.5t-61 131.5q0 19 5 44l75 338h79l-74 -333q-4 -24 -4 -36q0 -60 40.5 -92t110.5 -32q134 0 168 160l74 333h79l-75 -338q-25 -112 -82.5 -168t-162.5 -56zM404 604q-39 0 -64 25t-25 64q0 44 32 76t76 32q40 0 64.5 -24.5t24.5 -64.5
q0 -44 -32 -76t-76 -32zM407 644q26 0 45.5 19t19.5 45q0 24 -14 38.5t-37 14.5q-26 0 -46 -19t-20 -45q0 -23 14.5 -38t37.5 -15z" />
    <glyph glyph-name="Utilde.smcp" unicode="&#xf6a4;" horiz-adv-x="623" 
d="M295 -12q-111 0 -172 48.5t-61 131.5q0 19 5 44l75 338h79l-74 -333q-4 -24 -4 -36q0 -60 40.5 -92t110.5 -32q134 0 168 160l74 333h79l-75 -338q-25 -112 -82.5 -168t-162.5 -56zM462 604q-25 0 -42 14.5t-24.5 31.5t-20.5 31.5t-31 14.5q-43 0 -62 -86h-46
q27 134 114 134q25 0 42 -14.5t24.5 -31.5t21 -31.5t31.5 -14.5q42 0 62 86h46q-29 -134 -115 -134z" />
    <glyph glyph-name="Wcircumflex.smcp" unicode="&#xf6a6;" horiz-adv-x="764" 
d="M595 606h-49l-60 106l-103 -106h-53l127 144h72zM534 0h-82l-29 431l-219 -431h-83l-44 550h86l26 -443l226 443h66l30 -444l222 444h87z" />
    <glyph glyph-name="Ycircumflex.smcp" unicode="&#xf6a9;" horiz-adv-x="547" 
d="M260 0h-78l51 233l-159 317h89l123 -250l229 250h92l-296 -317zM489 606h-49l-60 106l-103 -106h-53l127 144h72z" />
    <glyph glyph-name="Zacute.smcp" unicode="&#xf6ab;" horiz-adv-x="516" 
d="M423 0h-437l12 59l417 422h-323l15 69h430l-13 -59l-416 -422h330zM529 750l-201 -144h-59l180 144h80z" />
    <glyph glyph-name="Zdotaccent.smcp" unicode="&#xf6ac;" horiz-adv-x="516" 
d="M423 0h-437l12 59l417 422h-323l15 69h430l-13 -59l-416 -422h330zM407 681q0 -21 -15.5 -37t-36.5 -16q-18 0 -30 12t-12 30q0 21 15.5 36.5t36.5 15.5q18 0 30 -11.5t12 -29.5z" />
    <glyph glyph-name="Idotaccent.smcp" unicode="&#xf6ad;" horiz-adv-x="202" 
d="M88 0h-79l121 550h79zM243 681q0 -21 -15.5 -37t-36.5 -16q-18 0 -30 12t-12 30q0 21 15.5 36.5t36.5 15.5q18 0 30 -11.5t12 -29.5z" />
    <glyph glyph-name="parenleft.case" unicode="&#xf6ae;" horiz-adv-x="248" 
d="M161 -79l-53 -30q-63 124 -63 290q0 156 66.5 309t190.5 285l39 -38q-217 -283 -217 -584q0 -105 37 -232z" />
    <glyph glyph-name="parenright.case" unicode="&#xf6af;" horiz-adv-x="248" 
d="M126 745l53 30q63 -124 63 -290q0 -156 -66.5 -309t-190.5 -285l-39 38q217 283 217 584q0 105 -37 232z" />
    <glyph glyph-name="bracketleft.case" unicode="&#xf6b0;" horiz-adv-x="243" 
d="M149 -100h-185l192 868h186l-12 -55h-128l-168 -758h128z" />
    <glyph glyph-name="bracketright.case" unicode="&#xf6b1;" horiz-adv-x="243" 
d="M127 -100h-186l13 55h127l168 758h-128l12 55h187z" />
    <glyph glyph-name="braceleft.case" unicode="&#xf6b2;" horiz-adv-x="261" 
d="M167 -100h-48q-45 0 -78.5 30t-33.5 77q0 15 3 27l46 206q2 12 2 17q0 23 -10.5 37.5t-28.5 14.5l12 50q52 0 67 69l46 205q15 67 55 101t99 34h62l-13 -55h-61q-32 0 -54 -20.5t-30 -58.5l-48 -218q-17 -71 -65 -88q29 -15 29 -54q0 -18 -4 -34l-45 -205q-2 -12 -2 -21
q0 -26 16 -42.5t41 -16.5h55z" />
    <glyph glyph-name="braceright.case" unicode="&#xf6b3;" horiz-adv-x="261" 
d="M133 768h48q45 0 78.5 -30t33.5 -77q0 -13 -4 -27l-45 -206q-2 -12 -2 -17q0 -22 10 -37t28 -15l-11 -50q-52 0 -67 -69l-46 -205q-15 -67 -55.5 -101t-99.5 -34h-61l12 55h62q32 0 54 20.5t30 58.5l48 218q15 70 65 88q-29 15 -29 54q0 18 4 34l45 205q2 12 2 21
q0 26 -16.5 42.5t-41.5 16.5h-55z" />
    <glyph glyph-name="exclamdown.case" unicode="&#xf6b4;" horiz-adv-x="230" 
d="M135 480h62l-90 -480h-94zM202 677q21 0 35.5 -14.5t14.5 -35.5q0 -25 -17.5 -42.5t-42.5 -17.5q-21 0 -35.5 15t-14.5 36q0 25 17.5 42t42.5 17z" />
    <glyph glyph-name="questiondown.case" unicode="&#xf6b5;" horiz-adv-x="462" 
d="M244 451l66 27q24 -33 24 -71q0 -40 -24.5 -70t-59.5 -49t-70 -37t-59.5 -44t-24.5 -61q0 -39 32.5 -63t89.5 -24q87 0 154 65l37 -56q-86 -82 -201 -82q-88 0 -144.5 40.5t-56.5 105.5q0 42 19 75t47 52t61 38t61 33t47 35t19 47q0 22 -17 39zM326 673q21 0 35.5 -15
t14.5 -36q0 -24 -18 -41.5t-42 -17.5q-22 0 -36.5 15t-14.5 36q0 25 18 42t43 17z" />
    <glyph glyph-name="guillemotleft.case" unicode="&#xf6b6;" horiz-adv-x="439" 
d="M242 162h-71l-120 180l200 177h79l-204 -182zM386 162h-71l-120 180l200 177h79l-204 -182z" />
    <glyph glyph-name="guillemotright.case" unicode="&#xf6b7;" horiz-adv-x="439" 
d="M99 519h71l120 -180l-200 -177h-79l204 182zM243 519h71l120 -180l-200 -177h-79l204 182z" />
    <glyph glyph-name="guilsinglleft.case" unicode="&#xf6b8;" horiz-adv-x="295" 
d="M242 162h-71l-120 180l200 177h79l-204 -182z" />
    <glyph glyph-name="guilsinglright.case" unicode="&#xf6b9;" horiz-adv-x="295" 
d="M99 519h71l120 -180l-200 -177h-79l204 182z" />
    <glyph glyph-name="hyphen.case" unicode="&#xf6ba;" horiz-adv-x="300" 
d="M284 308h-240l14 66h240z" />
    <glyph glyph-name="endash.case" unicode="&#xf6bb;" horiz-adv-x="593" 
d="M577 308h-533l14 66h533z" />
    <glyph glyph-name="emdash.case" unicode="&#xf6bc;" horiz-adv-x="833" 
d="M817 308h-773l14 66h773z" />
    <glyph glyph-name="periodcentered.case" unicode="&#xf6bd;" horiz-adv-x="231" 
d="M131 288q-21 0 -35.5 14.5t-14.5 35.5q0 25 17.5 42.5t42.5 17.5q21 0 35.5 -15t14.5 -36q0 -25 -17.5 -42t-42.5 -17z" />
    <glyph glyph-name="bullet.case" unicode="&#xf6be;" horiz-adv-x="358" 
d="M310 352q0 -48 -36.5 -83t-84.5 -35q-41 0 -69 28t-28 69q0 48 36.5 83t84.5 35q41 0 69 -28t28 -69z" />
    <glyph glyph-name="cent.case" unicode="&#xf6bf;" horiz-adv-x="496" 
d="M282 79h-9l-19 -88h-59l21 96q-72 18 -114 72t-42 136q0 118 77.5 203.5t189.5 87.5l16 70h59l-17 -75q86 -16 128 -85l-57 -43q-27 47 -86 62l-82 -369h1q74 0 123 58l42 -51q-72 -74 -172 -74zM138 296q0 -55 25 -91t68 -50l81 362q-79 -9 -126.5 -72.5t-47.5 -148.5z
" />
    <glyph glyph-name="commaaccent" unicode="&#xf6c3;" horiz-adv-x="230" 
d="M83 -121q0 -41 -30 -82t-72 -63l-27 28q26 13 47.5 34.5t28.5 43.5q-1 -1 -7 -1q-15 0 -25.5 11t-10.5 28q0 21 15.5 36t35.5 15t32.5 -13t12.5 -37z" />
    <glyph glyph-name="one.tnum" unicode="&#xf6dc;" horiz-adv-x="598" 
d="M342 0h-83l123 558l-132 -114l-38 51l204 172h73z" />
    <glyph glyph-name="rupiah" unicode="&#xf6dd;" horiz-adv-x="1126" 
d="M508 0h-92l-112 265h-139l-58 -265h-83l147 667h245q76 0 132.5 -47.5t56.5 -126.5q0 -93 -60 -155t-157 -69zM355 338h2q75 0 118 42.5t43 105.5q0 46 -34.5 76.5t-79.5 30.5h-166l-57 -255h174zM835 -12q-55 0 -99.5 23.5t-68.5 64.5l-58 -260h-75l148 667h75l-15 -69
q65 81 159 81q85 0 136 -53t51 -146q0 -124 -70.5 -216t-182.5 -92zM825 55q80 0 132 68t52 159q0 67 -37 106.5t-98 39.5q-43 0 -82.5 -23.5t-65.5 -58.5l-47 -213q19 -34 57.5 -56t88.5 -22z" />
    <glyph glyph-name="centinferior" unicode="&#xf6df;" horiz-adv-x="307" 
d="M69 -151l12 58q-45 11 -72 44.5t-27 81.5q0 70 48 121t118 52l9 42h41l-10 -46q54 -12 78 -54l-43 -28q-14 29 -45 38l-47 -212q37 3 70 36l32 -32q-44 -48 -109 -48h-3l-11 -53h-41zM39 35q0 -66 52 -83l47 209q-43 -6 -71 -42.5t-28 -83.5z" />
    <glyph glyph-name="centsuperior" unicode="&#xf6e0;" horiz-adv-x="307" 
d="M194 416l12 57q-46 11 -72.5 44.5t-26.5 82.5q0 70 48 121t118 52l9 42h41l-10 -46q54 -12 78 -54l-43 -28q-14 29 -45 38l-47 -212q37 1 70 36l32 -32q-44 -48 -109 -48h-3l-11 -53h-41zM164 602q0 -65 52 -84l47 210q-43 -6 -71 -42.5t-28 -83.5z" />
    <glyph glyph-name="commainferior" unicode="&#xf6e1;" horiz-adv-x="139" 
d="M25 -112q0 -29 -22 -61t-53 -50l-20 24q16 8 31.5 23t19.5 28q-3 -1 -5 -1q-11 0 -19.5 9t-8.5 23q0 18 12.5 29.5t30.5 11.5q14 0 24 -10t10 -26z" />
    <glyph glyph-name="commasuperior" unicode="&#xf6e2;" horiz-adv-x="139" 
d="M150 455q0 -29 -22 -61t-53 -50l-20 24q16 8 31.5 23t19.5 28q-3 -1 -5 -1q-11 0 -19.5 9t-8.5 23q0 18 12.5 29.5t30.5 11.5q14 0 24 -10t10 -26z" />
    <glyph glyph-name="dollarinferior" unicode="&#xf6e3;" horiz-adv-x="370" 
d="M131 -153h-9l-11 -53h-42l12 57q-87 15 -121 70l42 36q32 -46 90 -58l30 136q-35 13 -55.5 23t-39 32.5t-18.5 52.5q0 47 42 82t109 35h11l13 55h42l-14 -62q67 -15 102 -60l-42 -34q-23 34 -70 48l-28 -126q53 -19 82.5 -43t29.5 -67q0 -51 -39.5 -87.5t-115.5 -36.5z
M221 -38q0 21 -15 34t-45 25l-28 -127q41 1 64.5 19.5t23.5 48.5zM73 151q0 -19 16 -31.5t46 -24.5l26 119h-1q-37 0 -62 -18t-25 -45z" />
    <glyph glyph-name="dollarsuperior" unicode="&#xf6e4;" horiz-adv-x="370" 
d="M256 414h-9l-11 -53h-42l12 57q-87 14 -121 70l42 36q30 -45 90 -59l30 137q-35 13 -55.5 23t-39 32.5t-18.5 52.5q0 47 42 82t109 35h11l13 55h42l-14 -62q67 -15 102 -60l-42 -34q-23 34 -70 48l-28 -126q53 -19 82.5 -43t29.5 -67q0 -51 -39.5 -87.5t-115.5 -36.5z
M346 529q0 34 -60 59l-28 -127q41 0 64.5 19t23.5 49zM198 718q0 -19 16 -31.5t46 -24.5l26 119h-1q-37 0 -62 -18t-25 -45z" />
    <glyph glyph-name="hypheninferior" unicode="&#xf6e5;" horiz-adv-x="184" 
d="M118 30h-148l10 47h148z" />
    <glyph glyph-name="hyphensuperior" unicode="&#xf6e6;" horiz-adv-x="184" 
d="M243 598h-148l10 47h148z" />
    <glyph glyph-name="periodinferior" unicode="&#xf6e7;" horiz-adv-x="143" 
d="M29 -110q0 -16 -12.5 -28.5t-29.5 -12.5q-15 0 -24.5 9.5t-9.5 24.5q0 16 12.5 28.5t29.5 12.5q15 0 24.5 -9.5t9.5 -24.5z" />
    <glyph glyph-name="periodsuperior" unicode="&#xf6e8;" horiz-adv-x="143" 
d="M154 457q0 -16 -12.5 -28.5t-29.5 -12.5q-15 0 -24.5 9.5t-9.5 24.5q0 16 12.5 28.5t29.5 12.5q15 0 24.5 -9.5t9.5 -24.5z" />
    <glyph glyph-name="asuperior" unicode="&#xf6e9;" horiz-adv-x="378" 
d="M268 602q-50 0 -85.5 -43t-35.5 -101q0 -45 23.5 -69t63.5 -24q53 0 96 49l32 143q-13 20 -38.5 32.5t-55.5 12.5zM380 640h57l-69 -314h-58l10 46q-45 -54 -107 -54q-54 0 -90 35t-36 99q0 80 49 138t121 58q78 0 113 -54z" />
    <glyph glyph-name="bsuperior" unicode="&#xf6ea;" horiz-adv-x="410" 
d="M248 365q50 0 85 42.5t35 100.5q0 45 -23.5 69t-62.5 24q-53 0 -96 -49l-32 -143q12 -20 38 -32t56 -12zM136 326h-58l96 434h58l-36 -166q45 54 107 54q54 0 90 -35t36 -99q0 -80 -49 -138t-121 -58q-76 0 -113 54z" />
    <glyph glyph-name="dsuperior" unicode="&#xf6eb;" horiz-adv-x="410" 
d="M268 602q-50 0 -85.5 -43t-35.5 -101q0 -45 23.5 -69t63.5 -24q53 0 96 49l32 143q-13 20 -38.5 32.5t-55.5 12.5zM406 760h58l-96 -434h-58l10 46q-45 -54 -107 -54q-54 0 -90 35t-36 99q0 80 49 138t121 58q78 0 113 -54z" />
    <glyph glyph-name="esuperior" unicode="&#xf6ec;" horiz-adv-x="398" 
d="M249 318q-73 0 -116.5 38t-43.5 106q0 74 54 130t130 56q61 0 101 -37.5t40 -100.5q0 -24 -5 -46h-261q-1 -5 -1 -10q0 -39 29.5 -65.5t76.5 -26.5q53 0 95 31l18 -36q-51 -39 -117 -39zM361 506q1 2 1 9q0 39 -24.5 64.5t-66.5 25.5q-46 0 -77 -29.5t-40 -69.5h207z" />
    <glyph glyph-name="isuperior" unicode="&#xf6ed;" horiz-adv-x="162" 
d="M180 685q-13 0 -22.5 9.5t-9.5 22.5q0 17 13.5 29.5t30.5 12.5q14 0 23 -9.5t9 -22.5q0 -17 -13.5 -29.5t-30.5 -12.5zM128 326h-58l69 314h58z" />
    <glyph glyph-name="lsuperior" unicode="&#xf6ee;" horiz-adv-x="178" 
d="M136 326h-58l96 434h58z" />
    <glyph glyph-name="msuperior" unicode="&#xf6ef;" horiz-adv-x="571" 
d="M529 326h-57l46 207q2 16 2 21q0 46 -54 46q-39 0 -85 -50l-49 -224h-57l46 207q3 12 3 21q0 46 -55 46q-38 0 -84 -50l-49 -224h-58l69 314h58l-9 -44q16 20 43.5 36t59.5 16q34 0 57.5 -16t30.5 -42q46 58 109 58q37 0 61 -20t24 -56q0 -9 -3 -24z" />
    <glyph glyph-name="osuperior" unicode="&#xf6f0;" horiz-adv-x="405" 
d="M239 318q-68 0 -109 39.5t-41 103.5q0 77 53.5 132t128.5 55q68 0 109 -39.5t41 -103.5q0 -77 -53 -132t-129 -55zM240 366q54 0 88 42t34 98q0 42 -25 67.5t-67 25.5q-54 0 -87.5 -41.5t-33.5 -98.5q0 -41 25 -67t66 -26z" />
    <glyph glyph-name="rsuperior" unicode="&#xf6f1;" horiz-adv-x="240" 
d="M136 326h-58l69 314h58l-10 -48q58 55 119 55l-13 -54q-10 2 -20 2q-25 0 -53 -14t-43 -34z" />
    <glyph glyph-name="ssuperior" unicode="&#xf6f2;" horiz-adv-x="330" 
d="M199 318q-89 0 -138 61l34 32q15 -22 44 -36.5t62 -14.5q31 0 51 14.5t20 34.5q0 22 -26.5 37.5t-58.5 24t-58.5 29.5t-26.5 54q0 38 34 66t91 28q85 0 127 -54l-32 -31q-33 43 -96 43q-31 0 -49 -13.5t-18 -34.5q0 -17 17.5 -27.5t43 -18.5t50.5 -17.5t42.5 -29.5
t17.5 -50q0 -38 -35 -67.5t-96 -29.5z" />
    <glyph glyph-name="tsuperior" unicode="&#xf6f3;" horiz-adv-x="206" 
d="M168 318q-75 0 -75 59q0 5 3 20l44 201h-53l9 42h53l19 86h58l-19 -86h65l-9 -42h-65l-43 -193q-2 -8 -2 -15q0 -25 30 -25q17 0 31 10l7 -40q-22 -17 -53 -17z" />
    <glyph glyph-name="Lslash.smcp" unicode="&#xf6f9;" horiz-adv-x="481" 
d="M-6 171l16 72l99 51l56 256h79l-47 -211l107 55l-16 -72l-107 -55l-44 -198h267l-15 -69h-345l49 221z" />
    <glyph glyph-name="OE.smcp" unicode="&#xf6fa;" horiz-adv-x="953" 
d="M848 0h-383l18 85q-65 -97 -188 -97q-112 0 -180 69.5t-68 181.5q0 130 90.5 226.5t225.5 96.5q68 0 121.5 -30.5t77.5 -93.5l24 112h383l-15 -69h-305l-36 -165h298l-15 -69h-298l-40 -178h305zM506 191l37 164q-16 70 -66.5 104t-115.5 34q-98 0 -166 -73.5t-68 -176.5
q0 -84 52.5 -135t134.5 -51q63 0 113.5 35t78.5 99z" />
    <glyph glyph-name="Scaron.smcp" unicode="&#xf6fd;" horiz-adv-x="504" 
d="M240 -12q-162 0 -237 97l53 56q27 -38 77.5 -61t110.5 -23q65 0 94.5 28.5t29.5 69.5q0 30 -29.5 51.5t-71.5 36.5t-84 32t-71.5 49t-29.5 77q0 66 60 113.5t145 47.5q67 0 123 -25t87 -65l-51 -53q-24 33 -69.5 53.5t-92.5 20.5q-50 0 -84.5 -25.5t-34.5 -63.5
q0 -28 29.5 -47.5t71.5 -34t84 -32t71.5 -51.5t29.5 -82q0 -69 -54 -119t-157 -50zM371 606h-72l-66 144h49l59 -106l104 106h53z" />
    <glyph glyph-name="Zcaron.smcp" unicode="&#xf6ff;" horiz-adv-x="516" 
d="M423 0h-437l12 59l417 422h-323l15 69h430l-13 -59l-416 -422h330zM373 606h-72l-66 144h49l59 -106l104 106h53z" />
    <glyph glyph-name="exclam.smcp" unicode="&#xf721;" horiz-adv-x="184" 
d="M202 550l-98 -384h-58l70 384h86zM42 -10q-21 0 -35.5 14.5t-14.5 36.5q0 24 18 41.5t43 17.5q21 0 35.5 -15t14.5 -36q0 -25 -18 -42t-43 -17z" />
    <glyph glyph-name="dollar.onum" unicode="&#xf724;" horiz-adv-x="504" 
d="M240 -12h-13l-14 -62h-59l15 68q-112 19 -166 91l53 56q42 -59 128 -78l43 194q-33 13 -54 23.5t-44.5 27.5t-35 40t-11.5 53q0 66 60 113.5t145 47.5h8l15 66h59l-16 -73q96 -20 144 -83l-51 -53q-35 49 -109 67l-38 -175q34 -13 56 -24t46.5 -29t37 -43.5t12.5 -57.5
q0 -69 -54 -119t-157 -50zM368 155q0 28 -22.5 46.5t-63.5 34.5l-40 -179h2q65 0 94.5 28.5t29.5 69.5zM165 404q0 -25 20 -41t59 -32l36 162q-49 -2 -82 -27t-33 -62z" />
    <glyph glyph-name="ampersand.smcp" unicode="&#xf726;" horiz-adv-x="556" 
d="M461 0h-88q-18 21 -36 45q-77 -56 -159 -56q-78 0 -127 39t-49 108q0 72 44.5 113t121.5 69q-21 51 -21 93q0 64 47 107.5t113 43.5q54 0 92.5 -27t38.5 -77q0 -28 -11 -51t-26 -38t-43 -30t-47.5 -23t-54.5 -20q14 -28 46 -76q27 -41 55 -83q55 60 95 134l53 -30
q-58 -93 -115 -150q26 -36 71 -91zM187 44q55 0 116 46q-40 56 -60 89q-33 50 -54 91q-53 -22 -82 -51.5t-29 -75.5q0 -44 29.5 -71.5t79.5 -27.5zM217 411q0 -30 17 -70q69 23 104 47t35 65q0 27 -17 41.5t-47 14.5q-40 0 -66 -27t-26 -71z" />
    <glyph glyph-name="zero.onum" unicode="&#xf730;" horiz-adv-x="612" 
d="M574 325q0 -54 -18.5 -111.5t-53 -108.5t-91 -84t-123.5 -33q-115 0 -177 63t-62 174q0 54 19 111.5t53 108.5t91 84t124 33q115 0 176.5 -63t61.5 -174zM489 321q0 81 -39 124t-114 43q-64 0 -112 -45t-68.5 -102t-20.5 -112q0 -81 39 -124t114 -43q64 0 112 45
t68.5 102t20.5 112z" />
    <glyph glyph-name="one.onum" unicode="&#xf731;" horiz-adv-x="339" 
d="M207 0h-83l97 441l-132 -114l-38 51l204 172h73z" />
    <glyph glyph-name="two.onum" unicode="&#xf732;" horiz-adv-x="578" 
d="M437 0h-431l15 71q426 155 426 308q0 49 -39 79t-98 30q-106 0 -187 -75l-39 58q97 91 233 91q94 0 156 -44.5t62 -122.5q0 -51 -30 -99.5t-82.5 -89t-112 -72.5t-131.5 -60h274z" />
    <glyph glyph-name="three.onum" unicode="&#xf733;" horiz-adv-x="553" 
d="M222 -129q-86 0 -157 38.5t-98 100.5l60 47q25 -52 78.5 -82t115.5 -30q73 0 116 39.5t43 100.5q0 47 -39 75t-109 28q-53 0 -64 -1l18 76q10 -1 90 -1q68 0 114 30t46 88q0 46 -41.5 76t-110.5 30q-96 0 -169 -65l-35 56q85 83 210 83q103 0 167 -44.5t64 -123.5
q0 -71 -55.5 -118t-125.5 -53q53 -12 87.5 -49t34.5 -94q0 -87 -68 -147t-172 -60z" />
    <glyph glyph-name="four.onum" unicode="&#xf734;" horiz-adv-x="558" 
d="M483 55h-93l-38 -172h-83l38 172h-317l15 69l380 426h114l-93 -422h93zM323 128l76 345l-310 -345h234z" />
    <glyph glyph-name="five.onum" unicode="&#xf735;" horiz-adv-x="590" 
d="M253 -129q-174 0 -244 133l63 50q52 -109 185 -109q70 0 118 46.5t48 113.5q0 60 -41.5 93.5t-108.5 33.5q-75 0 -139 -48l-54 27l74 339h408l-16 -74h-325l-49 -220q56 45 140 45t141 -49.5t57 -137.5q0 -101 -72.5 -172t-184.5 -71z" />
    <glyph glyph-name="six.onum" unicode="&#xf736;" horiz-adv-x="591" 
d="M283 -12q-109 0 -168.5 64.5t-59.5 181.5q0 73 20.5 148.5t58.5 142.5t103.5 109.5t145.5 42.5q138 0 201 -100l-56 -56q-43 82 -150 82q-61 0 -109.5 -39.5t-74.5 -92t-43 -118.5q-5 -15 -5 -21q30 33 83.5 59.5t108.5 26.5q89 0 145.5 -47.5t56.5 -128.5
q0 -103 -75 -178.5t-182 -75.5zM284 62q72 0 121 50.5t49 118.5q0 54 -41 86t-108 32q-93 0 -168 -83q-2 -16 -2 -47q0 -71 39.5 -114t109.5 -43z" />
    <glyph glyph-name="seven.onum" unicode="&#xf737;" horiz-adv-x="515" 
d="M135 -117h-96l398 593h-355l16 74h455l-13 -57z" />
    <glyph glyph-name="eight.onum" unicode="&#xf738;" horiz-adv-x="582" 
d="M272 -12q-105 0 -173.5 44.5t-68.5 125.5q0 73 54.5 124.5t147.5 70.5q-49 20 -82.5 56t-33.5 85q0 88 72 135.5t165 47.5t160.5 -44t67.5 -120q0 -71 -52 -117.5t-137 -59.5q52 -24 88.5 -63.5t36.5 -94.5q0 -83 -72 -136.5t-173 -53.5zM320 378q77 5 124.5 37t47.5 85
q0 43 -42 72.5t-102 29.5q-62 0 -105.5 -31.5t-43.5 -84.5q0 -38 38.5 -68t82.5 -40zM274 62q63 0 111.5 34t48.5 90q0 44 -40.5 76.5t-88.5 44.5q-81 -5 -134 -41.5t-53 -92.5q0 -53 44.5 -82t111.5 -29z" />
    <glyph glyph-name="nine.onum" unicode="&#xf739;" horiz-adv-x="591" 
d="M321 561q109 0 168.5 -64.5t59.5 -181.5q0 -73 -20.5 -148.5t-59 -142.5t-104 -109.5t-145.5 -42.5q-138 0 -201 100l56 56q43 -82 150 -82q47 0 86 22t66 59.5t45 79t30 89.5q3 9 6 21q-31 -34 -84 -60t-108 -26q-89 0 -146 48t-57 128q0 103 75 178.5t183 75.5z
M319 487q-72 0 -120.5 -50.5t-48.5 -118.5q0 -54 41 -86t107 -32q93 0 169 83q2 18 2 47q0 71 -40 114t-110 43z" />
    <glyph glyph-name="question.smcp" unicode="&#xf73f;" horiz-adv-x="396" 
d="M415 437q0 -40 -22 -69t-54 -46t-64 -31t-54 -31.5t-22 -39.5q0 -17 19 -35l-61 -22q-25 27 -25 55q0 33 21 57t51 39t59.5 28.5t50.5 34.5t21 49q0 33 -29 51.5t-78 18.5q-81 0 -144 -63l-31 51q77 77 184 77q80 0 129 -34.5t49 -89.5zM142 -10q-21 0 -35.5 14.5
t-14.5 36.5q0 24 17.5 41.5t42.5 17.5q21 0 35.5 -15t14.5 -36q0 -25 -17.5 -42t-42.5 -17z" />
    <glyph glyph-name="A.smcp" unicode="&#xf761;" horiz-adv-x="572" 
d="M307 550h93l111 -550h-85l-25 120h-281l-77 -120h-90zM392 189l-54 279l-179 -279h233z" />
    <glyph glyph-name="B.smcp" unicode="&#xf762;" horiz-adv-x="554" 
d="M300 0h-279l121 550h234q71 0 116 -32.5t45 -91.5q0 -53 -33 -95.5t-91 -51.5q35 -13 57 -44.5t22 -67.5q0 -73 -51.5 -120t-140.5 -47zM115 69h184q48 0 80 28.5t32 71.5q0 34 -23.5 56t-64.5 22h-169zM339 316h14q47 0 74 28.5t27 67.5q0 34 -26 51.5t-68 17.5h-154
l-38 -165h171z" />
    <glyph glyph-name="C.smcp" unicode="&#xf763;" horiz-adv-x="582" 
d="M319 -12q-121 0 -196.5 69t-75.5 181q0 132 96.5 228t229.5 96q74 0 133 -34t87 -91l-68 -29q-22 38 -64 61.5t-90 23.5q-96 0 -169.5 -73.5t-73.5 -177.5q0 -83 54.5 -134t139.5 -51q92 0 158 71l57 -39q-93 -101 -218 -101z" />
    <glyph glyph-name="D.smcp" unicode="&#xf764;" horiz-adv-x="615" 
d="M233 0h-212l121 550h177q115 0 189 -68t74 -169q0 -57 -21 -111t-62 -100t-110 -74t-156 -28zM248 69q118 0 185 72t67 167q0 77 -52.5 125t-139.5 48h-102l-91 -412h133z" />
    <glyph glyph-name="E.smcp" unicode="&#xf765;" horiz-adv-x="509" 
d="M403 0h-382l121 550h382l-15 -69h-303l-37 -165h298l-15 -69h-298l-40 -178h304z" />
    <glyph glyph-name="F.smcp" unicode="&#xf766;" horiz-adv-x="491" 
d="M100 0h-79l121 550h382l-14 -69h-304l-37 -165h298l-15 -69h-298z" />
    <glyph glyph-name="G.smcp" unicode="&#xf767;" horiz-adv-x="626" 
d="M321 -12q-118 0 -196.5 67.5t-78.5 178.5q0 131 94.5 229.5t233.5 98.5q71 0 131 -32t92 -84l-68 -35q-22 34 -65.5 57.5t-94.5 23.5q-101 0 -170.5 -75.5t-69.5 -177.5q0 -80 55.5 -131t139.5 -51q75 0 130 38l29 127h-170l14 65h248l-50 -231q-94 -68 -204 -68z" />
    <glyph glyph-name="H.smcp" unicode="&#xf768;" horiz-adv-x="635" 
d="M506 0h-77l54 248h-329l-54 -248h-79l121 550h79l-52 -233h329l52 233h77z" />
    <glyph glyph-name="I.smcp" unicode="&#xf769;" horiz-adv-x="229" 
d="M100 0h-79l121 550h79z" />
    <glyph glyph-name="J.smcp" unicode="&#xf76a;" horiz-adv-x="422" 
d="M129 -12q-112 0 -160 75l51 53q32 -59 103 -59q103 0 128 113l84 380h78l-85 -386q-20 -91 -69 -133.5t-130 -42.5z" />
    <glyph glyph-name="K.smcp" unicode="&#xf76b;" horiz-adv-x="534" 
d="M466 0h-95l-163 244l-68 -59l-40 -185h-79l121 550h79l-60 -272l306 272h100l-300 -261z" />
    <glyph glyph-name="L.smcp" unicode="&#xf76c;" horiz-adv-x="458" 
d="M366 0h-345l121 550h79l-107 -481h267z" />
    <glyph glyph-name="M.smcp" unicode="&#xf76d;" horiz-adv-x="719" 
d="M590 0h-78l98 444l-287 -444h-34l-91 444l-98 -444h-79l121 550h106l85 -419l270 419h108z" />
    <glyph glyph-name="N.smcp" unicode="&#xf76e;" horiz-adv-x="632" 
d="M503 0h-79l-228 438l-97 -438h-78l121 550h82l227 -429l95 429h78z" />
    <glyph glyph-name="O.smcp" unicode="&#xf76f;" horiz-adv-x="662" 
d="M312 -12q-121 0 -193 70t-72 181q0 130 91 226.5t224 96.5q121 0 193 -70t72 -181q0 -130 -91 -226.5t-224 -96.5zM314 57q101 0 167 75t66 175q0 81 -50 133.5t-136 52.5q-101 0 -167.5 -75t-66.5 -175q0 -81 50.5 -133.5t136.5 -52.5z" />
    <glyph glyph-name="P.smcp" unicode="&#xf770;" horiz-adv-x="523" 
d="M100 0h-79l121 550h210q80 0 127.5 -40t47.5 -105q0 -78 -56 -134.5t-147 -56.5h-177zM320 282h4q55 0 88 34.5t33 84.5q0 37 -27 58.5t-75 21.5h-137l-44 -199h158z" />
    <glyph glyph-name="Q.smcp" unicode="&#xf771;" horiz-adv-x="662" 
d="M312 -12q-121 0 -193 70t-72 181q0 130 91 226.5t224 96.5q121 0 193 -70t72 -181q0 -76 -33.5 -144t-91.5 -114l31 -44l-56 -38l-33 47q-63 -30 -132 -30zM314 57q47 0 90 19l-62 91l57 39l63 -93q40 35 62.5 86.5t22.5 107.5q0 81 -50 133.5t-136 52.5
q-101 0 -167.5 -75t-66.5 -175q0 -81 50.5 -133.5t136.5 -52.5z" />
    <glyph glyph-name="R.smcp" unicode="&#xf772;" horiz-adv-x="545" 
d="M446 0h-90l-96 214h-113l-47 -214h-79l121 550h213q78 0 125.5 -41t47.5 -104q0 -74 -48.5 -128t-140.5 -59zM312 282h8q59 0 92.5 33.5t33.5 83.5q0 37 -28 59.5t-72 22.5h-140l-44 -199h150z" />
    <glyph glyph-name="S.smcp" unicode="&#xf773;" horiz-adv-x="504" 
d="M240 -12q-162 0 -237 97l53 56q27 -38 77.5 -61t110.5 -23q65 0 94.5 28.5t29.5 69.5q0 30 -29.5 51.5t-71.5 36.5t-84 32t-71.5 49t-29.5 77q0 66 60 113.5t145 47.5q67 0 123 -25t87 -65l-51 -53q-24 33 -69.5 53.5t-92.5 20.5q-50 0 -84.5 -25.5t-34.5 -63.5
q0 -28 29.5 -47.5t71.5 -34t84 -32t71.5 -51.5t29.5 -82q0 -69 -54 -119t-157 -50z" />
    <glyph glyph-name="T.smcp" unicode="&#xf774;" horiz-adv-x="472" 
d="M221 0h-78l105 481h-170l15 69h419l-15 -69h-170z" />
    <glyph glyph-name="U.smcp" unicode="&#xf775;" horiz-adv-x="623" 
d="M295 -12q-111 0 -172 48.5t-61 131.5q0 19 5 44l75 338h79l-74 -333q-4 -24 -4 -36q0 -60 40.5 -92t110.5 -32q134 0 168 160l74 333h79l-75 -338q-25 -112 -82.5 -168t-162.5 -56z" />
    <glyph glyph-name="V.smcp" unicode="&#xf776;" horiz-adv-x="572" 
d="M279 0h-93l-112 550h87l88 -463l294 463h89z" />
    <glyph glyph-name="W.smcp" unicode="&#xf777;" horiz-adv-x="764" 
d="M534 0h-82l-29 431l-219 -431h-83l-44 550h86l26 -443l226 443h66l30 -444l222 444h87z" />
    <glyph glyph-name="X.smcp" unicode="&#xf778;" horiz-adv-x="567" 
d="M504 0h-91l-131 229l-231 -229h-96l287 282l-153 268h92l120 -215l215 215h96l-270 -267z" />
    <glyph glyph-name="Y.smcp" unicode="&#xf779;" horiz-adv-x="547" 
d="M260 0h-78l51 233l-159 317h89l123 -250l229 250h92l-296 -317z" />
    <glyph glyph-name="Z.smcp" unicode="&#xf77a;" horiz-adv-x="516" 
d="M423 0h-437l12 59l417 422h-323l15 69h430l-13 -59l-416 -422h330z" />
    <glyph glyph-name="exclamdown.smcp" unicode="&#xf7a1;" horiz-adv-x="184" 
d="M-18 0l98 384h58l-70 -384h-86zM142 560q21 0 35.5 -14.5t14.5 -36.5q0 -24 -18 -41.5t-43 -17.5q-21 0 -35.5 15t-14.5 36q0 25 18 42t43 17z" />
    <glyph glyph-name="questiondown.smcp" unicode="&#xf7b8;" horiz-adv-x="396" 
d="M-19 113q0 40 22 69t54 46t64 31t54 31.5t22 39.5q0 17 -19 35l61 22q25 -27 25 -55q0 -33 -21 -57t-51 -39t-59.5 -28.5t-50.5 -34.5t-21 -49q0 -33 29 -51.5t78 -18.5q81 0 144 63l31 -51q-77 -77 -184 -77q-80 0 -129 34.5t-49 89.5zM254 560q21 0 35.5 -14.5
t14.5 -36.5q0 -24 -17.5 -41.5t-42.5 -17.5q-21 0 -35.5 15t-14.5 36q0 25 17.5 42t42.5 17z" />
    <glyph glyph-name="Agrave.smcp" unicode="&#xf7e0;" horiz-adv-x="572" 
d="M307 550h93l111 -550h-85l-25 120h-281l-77 -120h-90zM392 189l-54 279l-179 -279h233zM433 606h-57l-137 144h78z" />
    <glyph glyph-name="Aacute.smcp" unicode="&#xf7e1;" horiz-adv-x="572" 
d="M307 550h93l111 -550h-85l-25 120h-281l-77 -120h-90zM392 189l-54 279l-179 -279h233zM560 750l-201 -144h-59l180 144h80z" />
    <glyph glyph-name="Acircumflex.smcp" unicode="&#xf7e2;" horiz-adv-x="572" 
d="M307 550h93l111 -550h-85l-25 120h-281l-77 -120h-90zM392 189l-54 279l-179 -279h233zM500 606h-49l-60 106l-103 -106h-53l127 144h72z" />
    <glyph glyph-name="Atilde.smcp" unicode="&#xf7e3;" horiz-adv-x="572" 
d="M307 550h93l111 -550h-85l-25 120h-281l-77 -120h-90zM392 189l-54 279l-179 -279h233zM438 604q-25 0 -42 14.5t-24.5 31.5t-20.5 31.5t-31 14.5q-43 0 -62 -86h-46q27 134 114 134q25 0 42 -14.5t24.5 -31.5t21 -31.5t31.5 -14.5q42 0 62 86h46q-29 -134 -115 -134z
" />
    <glyph glyph-name="Adieresis.smcp" unicode="&#xf7e4;" horiz-adv-x="572" 
d="M307 550h93l111 -550h-85l-25 120h-281l-77 -120h-90zM392 189l-54 279l-179 -279h233zM528 665q0 -20 -15.5 -35.5t-36.5 -15.5q-17 0 -29 12t-12 29q0 20 15.5 35.5t36.5 15.5q17 0 29 -12t12 -29zM322 665q0 -20 -16 -35.5t-36 -15.5q-17 0 -29 12t-12 29
q0 20 15.5 35.5t36.5 15.5q17 0 29 -12t12 -29z" />
    <glyph glyph-name="Aring.smcp" unicode="&#xf7e5;" horiz-adv-x="572" 
d="M307 550h93l111 -550h-85l-25 120h-281l-77 -120h-90zM392 189l-54 279l-179 -279h233zM378 604q-39 0 -64 25t-25 64q0 44 32 76t76 32q40 0 64.5 -24.5t24.5 -64.5q0 -44 -32 -76t-76 -32zM381 644q26 0 45.5 19t19.5 45q0 24 -14 38.5t-37 14.5q-26 0 -46 -19t-20 -45
q0 -23 14.5 -38t37.5 -15z" />
    <glyph glyph-name="AE.smcp" unicode="&#xf7e6;" horiz-adv-x="821" 
d="M716 0h-383l26 120h-214l-102 -120h-91l473 550h412l-15 -69h-305l-37 -165h299l-15 -69h-299l-39 -178h305zM374 189l62 279l-237 -279h175z" />
    <glyph glyph-name="Ccedilla.smcp" unicode="&#xf7e7;" horiz-adv-x="582" 
d="M258 -191q-68 0 -108 38l27 36q33 -35 83 -35q29 0 45 13t16 34q0 30 -36 30q-21 0 -36 -17l-29 19l39 66q-96 17 -154 82.5t-58 162.5q0 132 96.5 228t229.5 96q74 0 133 -34t87 -91l-68 -29q-22 38 -64 61.5t-90 23.5q-96 0 -169.5 -73.5t-73.5 -177.5q0 -83 54.5 -134
t139.5 -51q92 0 158 71l57 -39q-93 -101 -218 -101q-12 0 -18 1l-26 -44q12 11 33 11q26 0 42 -15.5t16 -42.5q0 -40 -30 -64.5t-78 -24.5z" />
    <glyph glyph-name="Egrave.smcp" unicode="&#xf7e8;" horiz-adv-x="509" 
d="M403 0h-382l121 550h382l-15 -69h-303l-37 -165h298l-15 -69h-298l-40 -178h304zM416 606h-57l-137 144h78z" />
    <glyph glyph-name="Eacute.smcp" unicode="&#xf7e9;" horiz-adv-x="509" 
d="M403 0h-382l121 550h382l-15 -69h-303l-37 -165h298l-15 -69h-298l-40 -178h304zM542 750l-201 -144h-59l180 144h80z" />
    <glyph glyph-name="Ecircumflex.smcp" unicode="&#xf7ea;" horiz-adv-x="509" 
d="M403 0h-382l121 550h382l-15 -69h-303l-37 -165h298l-15 -69h-298l-40 -178h304zM483 606h-49l-60 106l-103 -106h-53l127 144h72z" />
    <glyph glyph-name="Edieresis.smcp" unicode="&#xf7eb;" horiz-adv-x="509" 
d="M403 0h-382l121 550h382l-15 -69h-303l-37 -165h298l-15 -69h-298l-40 -178h304zM507 665q0 -20 -15.5 -35.5t-36.5 -15.5q-17 0 -29 12t-12 29q0 20 15.5 35.5t36.5 15.5q17 0 29 -12t12 -29zM301 665q0 -20 -16 -35.5t-36 -15.5q-17 0 -29 12t-12 29q0 20 15.5 35.5
t36.5 15.5q17 0 29 -12t12 -29z" />
    <glyph glyph-name="Igrave.smcp" unicode="&#xf7ec;" horiz-adv-x="227" 
d="M100 0h-79l121 550h79zM260 606h-57l-137 144h78z" />
    <glyph glyph-name="Iacute.smcp" unicode="&#xf7ed;" horiz-adv-x="227" 
d="M100 0h-79l121 550h79zM387 750l-201 -144h-59l180 144h80z" />
    <glyph glyph-name="Icircumflex.smcp" unicode="&#xf7ee;" horiz-adv-x="227" 
d="M100 0h-79l121 550h79zM327 606h-49l-60 106l-103 -106h-53l127 144h72z" />
    <glyph glyph-name="Idieresis.smcp" unicode="&#xf7ef;" horiz-adv-x="227" 
d="M100 0h-79l121 550h79zM355 665q0 -20 -15.5 -35.5t-36.5 -15.5q-17 0 -29 12t-12 29q0 20 15.5 35.5t36.5 15.5q17 0 29 -12t12 -29zM149 665q0 -20 -16 -35.5t-36 -15.5q-17 0 -29 12t-12 29q0 20 15.5 35.5t36.5 15.5q17 0 29 -12t12 -29z" />
    <glyph glyph-name="Eth.smcp" unicode="&#xf7f0;" horiz-adv-x="626" 
d="M231 0h-212l55 251h-62l12 57h62l54 242h177q115 0 189 -68t74 -169q0 -57 -21 -111t-62 -100t-110 -74t-156 -28zM246 69q118 0 185 72t67 167q0 77 -52.5 125t-139.5 48h-102l-39 -173h133l-12 -57h-133l-40 -182h133z" />
    <glyph glyph-name="Ntilde.smcp" unicode="&#xf7f1;" horiz-adv-x="632" 
d="M503 0h-79l-228 438l-97 -438h-78l121 550h82l227 -429l95 429h78zM466 604q-25 0 -42 14.5t-24.5 31.5t-20.5 31.5t-31 14.5q-43 0 -62 -86h-46q27 134 114 134q25 0 42 -14.5t24.5 -31.5t21 -31.5t31.5 -14.5q42 0 62 86h46q-29 -134 -115 -134z" />
    <glyph glyph-name="Ograve.smcp" unicode="&#xf7f2;" horiz-adv-x="662" 
d="M312 -12q-121 0 -193 70t-72 181q0 130 91 226.5t224 96.5q121 0 193 -70t72 -181q0 -130 -91 -226.5t-224 -96.5zM314 57q101 0 167 75t66 175q0 81 -50 133.5t-136 52.5q-101 0 -167.5 -75t-66.5 -175q0 -81 50.5 -133.5t136.5 -52.5zM477 606h-57l-137 144h78z" />
    <glyph glyph-name="Oacute.smcp" unicode="&#xf7f3;" horiz-adv-x="662" 
d="M312 -12q-121 0 -193 70t-72 181q0 130 91 226.5t224 96.5q121 0 193 -70t72 -181q0 -130 -91 -226.5t-224 -96.5zM314 57q101 0 167 75t66 175q0 81 -50 133.5t-136 52.5q-101 0 -167.5 -75t-66.5 -175q0 -81 50.5 -133.5t136.5 -52.5zM605 750l-201 -144h-59l180 144
h80z" />
    <glyph glyph-name="Ocircumflex.smcp" unicode="&#xf7f4;" horiz-adv-x="662" 
d="M312 -12q-121 0 -193 70t-72 181q0 130 91 226.5t224 96.5q121 0 193 -70t72 -181q0 -130 -91 -226.5t-224 -96.5zM314 57q101 0 167 75t66 175q0 81 -50 133.5t-136 52.5q-101 0 -167.5 -75t-66.5 -175q0 -81 50.5 -133.5t136.5 -52.5zM546 606h-49l-60 106l-103 -106
h-53l127 144h72z" />
    <glyph glyph-name="Otilde.smcp" unicode="&#xf7f5;" horiz-adv-x="662" 
d="M312 -12q-121 0 -193 70t-72 181q0 130 91 226.5t224 96.5q121 0 193 -70t72 -181q0 -130 -91 -226.5t-224 -96.5zM314 57q101 0 167 75t66 175q0 81 -50 133.5t-136 52.5q-101 0 -167.5 -75t-66.5 -175q0 -81 50.5 -133.5t136.5 -52.5zM485 604q-25 0 -42 14.5
t-24.5 31.5t-20.5 31.5t-31 14.5q-43 0 -62 -86h-46q27 134 114 134q25 0 42 -14.5t24.5 -31.5t21 -31.5t31.5 -14.5q42 0 62 86h46q-29 -134 -115 -134z" />
    <glyph glyph-name="Odieresis.smcp" unicode="&#xf7f6;" horiz-adv-x="662" 
d="M312 -12q-121 0 -193 70t-72 181q0 130 91 226.5t224 96.5q121 0 193 -70t72 -181q0 -130 -91 -226.5t-224 -96.5zM314 57q101 0 167 75t66 175q0 81 -50 133.5t-136 52.5q-101 0 -167.5 -75t-66.5 -175q0 -81 50.5 -133.5t136.5 -52.5zM574 665q0 -20 -15.5 -35.5
t-36.5 -15.5q-17 0 -29 12t-12 29q0 20 15.5 35.5t36.5 15.5q17 0 29 -12t12 -29zM368 665q0 -20 -16 -35.5t-36 -15.5q-17 0 -29 12t-12 29q0 20 15.5 35.5t36.5 15.5q17 0 29 -12t12 -29z" />
    <glyph glyph-name="Oslash.smcp" unicode="&#xf7f8;" horiz-adv-x="662" 
d="M312 -12q-102 0 -169 50l-36 -38h-70l68 71q-58 67 -58 168q0 130 91 226.5t224 96.5q97 0 167 -49l35 37h70l-68 -70q61 -69 61 -169q0 -130 -91 -226.5t-224 -96.5zM314 57q101 0 167 75t66 175q0 67 -35 116l-316 -330q47 -36 118 -36zM127 243q0 -66 34 -114l315 329
q-48 35 -115 35q-101 0 -167.5 -75t-66.5 -175z" />
    <glyph glyph-name="Ugrave.smcp" unicode="&#xf7f9;" horiz-adv-x="623" 
d="M295 -12q-111 0 -172 48.5t-61 131.5q0 19 5 44l75 338h79l-74 -333q-4 -24 -4 -36q0 -60 40.5 -92t110.5 -32q134 0 168 160l74 333h79l-75 -338q-25 -112 -82.5 -168t-162.5 -56zM457 606h-57l-137 144h78z" />
    <glyph glyph-name="Uacute.smcp" unicode="&#xf7fa;" horiz-adv-x="623" 
d="M295 -12q-111 0 -172 48.5t-61 131.5q0 19 5 44l75 338h79l-74 -333q-4 -24 -4 -36q0 -60 40.5 -92t110.5 -32q134 0 168 160l74 333h79l-75 -338q-25 -112 -82.5 -168t-162.5 -56zM586 750l-201 -144h-59l180 144h80z" />
    <glyph glyph-name="Ucircumflex.smcp" unicode="&#xf7fb;" horiz-adv-x="623" 
d="M295 -12q-111 0 -172 48.5t-61 131.5q0 19 5 44l75 338h79l-74 -333q-4 -24 -4 -36q0 -60 40.5 -92t110.5 -32q134 0 168 160l74 333h79l-75 -338q-25 -112 -82.5 -168t-162.5 -56zM524 606h-49l-60 106l-103 -106h-53l127 144h72z" />
    <glyph glyph-name="Udieresis.smcp" unicode="&#xf7fc;" horiz-adv-x="623" 
d="M295 -12q-111 0 -172 48.5t-61 131.5q0 19 5 44l75 338h79l-74 -333q-4 -24 -4 -36q0 -60 40.5 -92t110.5 -32q134 0 168 160l74 333h79l-75 -338q-25 -112 -82.5 -168t-162.5 -56zM553 665q0 -20 -15.5 -35.5t-36.5 -15.5q-17 0 -29 12t-12 29q0 20 15.5 35.5t36.5 15.5
q17 0 29 -12t12 -29zM347 665q0 -20 -16 -35.5t-36 -15.5q-17 0 -29 12t-12 29q0 20 15.5 35.5t36.5 15.5q17 0 29 -12t12 -29z" />
    <glyph glyph-name="Yacute.smcp" unicode="&#xf7fd;" horiz-adv-x="547" 
d="M260 0h-78l51 233l-159 317h89l123 -250l229 250h92l-296 -317zM548 750l-201 -144h-59l180 144h80z" />
    <glyph glyph-name="Thorn.smcp" unicode="&#xf7fe;" horiz-adv-x="523" 
d="M100 0h-79l121 550h79l-20 -93h130q78 0 126.5 -39.5t48.5 -104.5q0 -78 -55 -135t-148 -57h-177zM291 190h12q55 0 88 34t33 84q0 39 -28 60t-75 21h-136l-44 -199h150z" />
    <glyph glyph-name="Ydieresis.smcp" unicode="&#xf7ff;" horiz-adv-x="547" 
d="M260 0h-78l51 233l-159 317h89l123 -250l229 250h92l-296 -317zM517 665q0 -20 -15.5 -35.5t-36.5 -15.5q-17 0 -29 12t-12 29q0 20 15.5 35.5t36.5 15.5q17 0 29 -12t12 -29zM311 665q0 -20 -16 -35.5t-36 -15.5q-17 0 -29 12t-12 29q0 20 15.5 35.5t36.5 15.5
q17 0 29 -12t12 -29z" />
    <glyph glyph-name="f.alt1" horiz-adv-x="284" 
d="M117 0h-75l92 417h-80l15 66h80l8 37q35 157 159 157q49 0 86 -23l-29 -54q-19 15 -51 15q-69 0 -90 -95l-8 -37h98l-15 -66h-98z" />
    <glyph glyph-name="l.alt1" horiz-adv-x="269" 
d="M151 -12q-51 0 -81 21.5t-30 60.5q0 18 4 34l124 563h75l-121 -548q-3 -12 -3 -23q0 -41 50 -41q26 0 46 16l8 -60q-29 -23 -72 -23z" />
    <glyph glyph-name="a.alt1" horiz-adv-x="528" 
d="M403 0h-75l12 52q-66 -64 -150 -64q-68 0 -115.5 36.5t-47.5 103.5q0 82 52.5 130.5t128.5 48.5q109 0 172 -72l18 81q3 12 3 29q0 39 -35 63t-93 24q-78 0 -142 -57l-24 54q81 66 179 66q83 0 137.5 -34.5t54.5 -102.5q0 -10 -6 -46zM219 42q76 0 131 58l21 90
q-37 63 -140 63q-56 0 -90.5 -33.5t-34.5 -85.5q0 -44 31 -68t82 -24z" />
    <glyph glyph-name="y.alt1" horiz-adv-x="551" 
d="M189 -196q-147 0 -216 82l47 51q46 -71 167 -71q128 0 163 150l14 62q-88 -80 -169 -80q-63 0 -103.5 29.5t-40.5 88.5q0 16 5 42l72 325h75l-68 -307q-5 -23 -5 -35q0 -77 100 -77q76 0 148 76l76 343h75l-104 -467q-47 -212 -236 -212z" />
    <glyph glyph-name="G.alt1" horiz-adv-x="713" 
d="M355 -12q-129 0 -212 80.5t-83 211.5q0 175 114 286.5t274 111.5q86 0 153.5 -40t102.5 -106l-75 -34q-26 51 -78.5 78.5t-114.5 27.5q-113 0 -200.5 -90.5t-87.5 -229.5q0 -100 60 -161t158 -61q97 0 163 58t95 149h-275l16 74h361q-31 -169 -126 -262t-245 -93z" />
    <glyph glyph-name="G.smcp.alt1" horiz-adv-x="643" 
d="M321 -12q-121 0 -197.5 69t-76.5 177q0 139 97.5 233.5t228.5 94.5q149 0 228 -119l-68 -35q-24 39 -68 61.5t-94 22.5q-97 0 -170 -71.5t-73 -177.5q0 -84 56 -135t140 -51q70 0 127 45.5t75 118.5h-213l14 65h290q-14 -129 -97.5 -213.5t-198.5 -84.5z" />
    <glyph glyph-name="Gbreve.alt1" horiz-adv-x="742" 
d="M697 810q-85 -88 -194 -88q-53 0 -94 23.5t-63 64.5l42 32q36 -72 123 -72q88 0 154 72zM355 -12q-129 0 -212 80.5t-83 211.5q0 175 114 286.5t274 111.5q86 0 153.5 -40t102.5 -106l-75 -34q-26 51 -78.5 78.5t-114.5 27.5q-113 0 -200.5 -90.5t-87.5 -229.5
q0 -100 60 -161t158 -61q97 0 163 58t95 149h-275l16 74h361q-31 -169 -126 -262t-245 -93z" />
    <glyph glyph-name="Gbreve.smcp.alt1" horiz-adv-x="640" 
d="M617 691q-85 -88 -194 -88q-53 0 -94 23.5t-63 64.5l42 32q36 -72 123 -72q88 0 154 72zM321 -12q-121 0 -197.5 69t-76.5 177q0 139 97.5 233.5t228.5 94.5q149 0 228 -119l-68 -35q-24 39 -68 61.5t-94 22.5q-97 0 -170 -71.5t-73 -177.5q0 -84 56 -135t140 -51
q70 0 127 45.5t75 118.5h-213l14 65h290q-14 -129 -97.5 -213.5t-198.5 -84.5z" />
    <glyph glyph-name="Gcommaaccent.alt1" horiz-adv-x="742" 
d="M365 -121q0 -41 -30 -82t-72 -63l-27 28q26 13 47.5 34.5t28.5 43.5q-1 -1 -7 -1q-15 0 -25.5 11t-10.5 28q0 21 15.5 36t35.5 15t32.5 -13t12.5 -37zM355 -12q-129 0 -212 80.5t-83 211.5q0 175 114 286.5t274 111.5q86 0 153.5 -40t102.5 -106l-75 -34
q-26 51 -78.5 78.5t-114.5 27.5q-113 0 -200.5 -90.5t-87.5 -229.5q0 -100 60 -161t158 -61q97 0 163 58t95 149h-275l16 74h361q-31 -169 -126 -262t-245 -93z" />
    <glyph glyph-name="Gcommaaccent.smcp.alt1" horiz-adv-x="643" 
d="M313 -121q0 -41 -30 -82t-72 -63l-27 28q26 13 47.5 34.5t28.5 43.5q-1 -1 -7 -1q-15 0 -25.5 11t-10.5 28q0 21 15.5 36t35.5 15t32.5 -13t12.5 -37zM321 -12q-121 0 -197.5 69t-76.5 177q0 139 97.5 233.5t228.5 94.5q149 0 228 -119l-68 -35q-24 39 -68 61.5t-94 22.5
q-97 0 -170 -71.5t-73 -177.5q0 -84 56 -135t140 -51q70 0 127 45.5t75 118.5h-213l14 65h290q-14 -129 -97.5 -213.5t-198.5 -84.5z" />
    <glyph glyph-name="lslash.alt1" horiz-adv-x="299" 
d="M6 228l14 60l106 54l72 325h75l-63 -283l110 56l-14 -60l-109 -55l-45 -206q-3 -12 -3 -23q0 -41 50 -41q26 0 46 16l8 -60q-29 -23 -72 -23q-51 0 -81 21.5t-30 60.5q0 18 4 34l39 178z" />
    <glyph glyph-name="lacute.alt1" horiz-adv-x="269" 
d="M412 872l-201 -144h-59l180 144h80zM151 -12q-51 0 -81 21.5t-30 60.5q0 18 4 34l124 563h75l-121 -548q-3 -12 -3 -23q0 -41 50 -41q26 0 46 16l8 -60q-29 -23 -72 -23z" />
    <glyph glyph-name="lcommaaccent.alt1" horiz-adv-x="269" 
d="M100 -121q0 -41 -30 -82t-72 -63l-27 28q26 13 47.5 34.5t28.5 43.5q-1 -1 -7 -1q-15 0 -25.5 11t-10.5 28q0 21 15.5 36t35.5 15t32.5 -13t12.5 -37zM151 -12q-51 0 -81 21.5t-30 60.5q0 18 4 34l124 563h75l-121 -548q-3 -12 -3 -23q0 -41 50 -41q26 0 46 16l8 -60
q-29 -23 -72 -23z" />
    <glyph glyph-name="lcaron.alt1" horiz-adv-x="296" 
d="M396 630q0 -41 -30 -82t-72 -63l-27 28q26 13 47.5 34.5t28.5 43.5q-1 -1 -7 -1q-15 0 -25.5 11t-10.5 28q0 21 15.5 36t35.5 15t32.5 -13t12.5 -37zM151 -12q-51 0 -81 21.5t-30 60.5q0 18 4 34l124 563h75l-121 -548q-3 -12 -3 -23q0 -41 50 -41q26 0 46 16l8 -60
q-29 -23 -72 -23z" />
    <glyph glyph-name="aacute.alt1" horiz-adv-x="528" 
d="M534 700l-201 -144h-59l180 144h80zM403 0h-75l12 52q-66 -64 -150 -64q-68 0 -115.5 36.5t-47.5 103.5q0 82 52.5 130.5t128.5 48.5q109 0 172 -72l18 81q3 12 3 29q0 39 -35 63t-93 24q-78 0 -142 -57l-24 54q81 66 179 66q83 0 137.5 -34.5t54.5 -102.5q0 -10 -6 -46z
M219 42q76 0 131 58l21 90q-37 63 -140 63q-56 0 -90.5 -33.5t-34.5 -85.5q0 -44 31 -68t82 -24z" />
    <glyph glyph-name="agrave.alt1" horiz-adv-x="528" 
d="M407 556h-57l-137 144h78zM403 0h-75l12 52q-66 -64 -150 -64q-68 0 -115.5 36.5t-47.5 103.5q0 82 52.5 130.5t128.5 48.5q109 0 172 -72l18 81q3 12 3 29q0 39 -35 63t-93 24q-78 0 -142 -57l-24 54q81 66 179 66q83 0 137.5 -34.5t54.5 -102.5q0 -10 -6 -46zM219 42
q76 0 131 58l21 90q-37 63 -140 63q-56 0 -90.5 -33.5t-34.5 -85.5q0 -44 31 -68t82 -24z" />
    <glyph glyph-name="acircumflex.alt1" horiz-adv-x="528" 
d="M476 556h-49l-60 106l-103 -106h-53l127 144h72zM403 0h-75l12 52q-66 -64 -150 -64q-68 0 -115.5 36.5t-47.5 103.5q0 82 52.5 130.5t128.5 48.5q109 0 172 -72l18 81q3 12 3 29q0 39 -35 63t-93 24q-78 0 -142 -57l-24 54q81 66 179 66q83 0 137.5 -34.5t54.5 -102.5
q0 -10 -6 -46zM219 42q76 0 131 58l21 90q-37 63 -140 63q-56 0 -90.5 -33.5t-34.5 -85.5q0 -44 31 -68t82 -24z" />
    <glyph glyph-name="adieresis.alt1" horiz-adv-x="528" 
d="M499 609q0 -20 -15.5 -35.5t-36.5 -15.5q-17 0 -29 12t-12 29q0 20 15.5 35.5t36.5 15.5q17 0 29 -12t12 -29zM293 609q0 -20 -16 -35.5t-36 -15.5q-17 0 -29 12t-12 29q0 20 15.5 35.5t36.5 15.5q17 0 29 -12t12 -29zM403 0h-75l12 52q-66 -64 -150 -64
q-68 0 -115.5 36.5t-47.5 103.5q0 82 52.5 130.5t128.5 48.5q109 0 172 -72l18 81q3 12 3 29q0 39 -35 63t-93 24q-78 0 -142 -57l-24 54q81 66 179 66q83 0 137.5 -34.5t54.5 -102.5q0 -10 -6 -46zM219 42q76 0 131 58l21 90q-37 63 -140 63q-56 0 -90.5 -33.5t-34.5 -85.5
q0 -44 31 -68t82 -24z" />
    <glyph glyph-name="atilde.alt1" horiz-adv-x="528" 
d="M411 554q-25 0 -42 14.5t-24.5 31.5t-20.5 31.5t-31 14.5q-43 0 -62 -86h-46q27 134 114 134q25 0 42 -14.5t24.5 -31.5t21 -31.5t31.5 -14.5q42 0 62 86h46q-29 -134 -115 -134zM403 0h-75l12 52q-66 -64 -150 -64q-68 0 -115.5 36.5t-47.5 103.5q0 82 52.5 130.5
t128.5 48.5q109 0 172 -72l18 81q3 12 3 29q0 39 -35 63t-93 24q-78 0 -142 -57l-24 54q81 66 179 66q83 0 137.5 -34.5t54.5 -102.5q0 -10 -6 -46zM219 42q76 0 131 58l21 90q-37 63 -140 63q-56 0 -90.5 -33.5t-34.5 -85.5q0 -44 31 -68t82 -24z" />
    <glyph glyph-name="aring.alt1" horiz-adv-x="528" 
d="M351 554q-39 0 -64 25t-25 64q0 44 32 76t76 32q40 0 64.5 -24.5t24.5 -64.5q0 -44 -32 -76t-76 -32zM354 594q26 0 45.5 19t19.5 45q0 24 -14 38.5t-37 14.5q-26 0 -46 -19t-20 -45q0 -23 14.5 -38t37.5 -15zM403 0h-75l12 52q-66 -64 -150 -64q-68 0 -115.5 36.5
t-47.5 103.5q0 82 52.5 130.5t128.5 48.5q109 0 172 -72l18 81q3 12 3 29q0 39 -35 63t-93 24q-78 0 -142 -57l-24 54q81 66 179 66q83 0 137.5 -34.5t54.5 -102.5q0 -10 -6 -46zM219 42q76 0 131 58l21 90q-37 63 -140 63q-56 0 -90.5 -33.5t-34.5 -85.5q0 -44 31 -68
t82 -24z" />
    <glyph glyph-name="amacron.alt1" horiz-adv-x="528" 
d="M526 591h-362l11 48h362zM403 0h-75l12 52q-66 -64 -150 -64q-68 0 -115.5 36.5t-47.5 103.5q0 82 52.5 130.5t128.5 48.5q109 0 172 -72l18 81q3 12 3 29q0 39 -35 63t-93 24q-78 0 -142 -57l-24 54q81 66 179 66q83 0 137.5 -34.5t54.5 -102.5q0 -10 -6 -46zM219 42
q76 0 131 58l21 90q-37 63 -140 63q-56 0 -90.5 -33.5t-34.5 -85.5q0 -44 31 -68t82 -24z" />
    <glyph glyph-name="abreve.alt1" horiz-adv-x="528" 
d="M534 651q-85 -88 -194 -88q-53 0 -94 23.5t-63 64.5l42 32q36 -72 123 -72q88 0 154 72zM403 0h-75l12 52q-66 -64 -150 -64q-68 0 -115.5 36.5t-47.5 103.5q0 82 52.5 130.5t128.5 48.5q109 0 172 -72l18 81q3 12 3 29q0 39 -35 63t-93 24q-78 0 -142 -57l-24 54
q81 66 179 66q83 0 137.5 -34.5t54.5 -102.5q0 -10 -6 -46zM219 42q76 0 131 58l21 90q-37 63 -140 63q-56 0 -90.5 -33.5t-34.5 -85.5q0 -44 31 -68t82 -24z" />
    </font>
</defs>
</svg>
