<?xml version="1.0" standalone="no"?>
<!DOCTYPE svg PUBLIC "-//W3C//DTD SVG 1.1//EN" "http://www.w3.org/Graphics/SVG/1.1/DTD/svg11.dtd" >
<svg xmlns="http://www.w3.org/2000/svg" xmlns:xlink="http://www.w3.org/1999/xlink" version="1.1">
<metadata></metadata>
<defs>
<font id="seganlight" horiz-adv-x="1095" >
<font-face units-per-em="2048" ascent="1536" descent="-512" />
<missing-glyph horiz-adv-x="495" />
<glyph horiz-adv-x="0" />
<glyph unicode="&#xd;" horiz-adv-x="495" />
<glyph unicode=" "  horiz-adv-x="495" />
<glyph unicode="&#x09;" horiz-adv-x="495" />
<glyph unicode="&#xa0;" horiz-adv-x="495" />
<glyph unicode="!" horiz-adv-x="622" d="M240 66q0 35 24.5 59.5t59.5 24.5t60.5 -24.5t25.5 -59.5t-26 -59.5t-60 -24.5q-35 0 -59.5 24.5t-24.5 59.5zM262 1432h121l-16 -1070h-86z" />
<glyph unicode="&#x22;" horiz-adv-x="618" d="M113 1430h114l-18 -443l-76 14zM391 1430h115l-19 -443l-75 14z" />
<glyph unicode="#" horiz-adv-x="1173" d="M63 467q4 20 5.5 38.5t3.5 39.5h239q14 92 27.5 185t30.5 188h-242q2 18 4 36.5t4 38.5h244q16 100 30.5 198.5t30.5 199.5h86q-16 -100 -30.5 -198.5t-30.5 -199.5h309q16 100 30.5 198.5t31.5 199.5h86q-16 -100 -30.5 -198.5t-31.5 -199.5h232q-2 -20 -4.5 -38.5 t-4.5 -36.5h-233q-14 -94 -27.5 -187.5t-29.5 -185.5h235q-2 -20 -3 -39t-5 -39h-238q-16 -98 -30.5 -197.5t-30.5 -199.5h-86q16 100 30.5 199.5t30.5 197.5h-309q-16 -98 -30.5 -197.5t-30.5 -199.5h-86q16 100 30.5 199.5t30.5 197.5h-238zM397 545h312q14 92 27.5 185 t27.5 188h-311q-14 -94 -27.5 -187.5t-28.5 -185.5z" />
<glyph unicode="$" horiz-adv-x="1054" d="M162 80v102q66 -45 153.5 -71.5t173.5 -26.5v598q-82 49 -143 90t-102 86t-61.5 95.5t-20.5 117.5q0 63 21.5 122.5t62.5 109t102.5 83t140.5 46.5v161l78 21v-180q37 0 77 -4.5t76 -10.5t64.5 -14t42.5 -14v-103q-55 33 -124.5 46.5t-135.5 13.5v-607q80 -45 141.5 -87 t102.5 -86t61.5 -96.5t20.5 -115.5q0 -55 -16.5 -112.5t-54.5 -106.5t-100.5 -85t-154.5 -48v-192l-78 -21v209q-92 0 -180 22.5t-147 57.5zM258 1083q0 -55 15.5 -96t45 -74.5t72.5 -63.5t98 -63v560q-117 -18 -174 -91t-57 -172zM567 86q123 23 176.5 93.5t53.5 158.5 q0 53 -14.5 93t-43 74t-71.5 64.5t-101 65.5v-549z" />
<glyph unicode="%" horiz-adv-x="1521" d="M98 1026q0 68 20.5 127t58.5 102t93.5 68t124.5 25q147 0 212 -79.5t65 -224.5q0 -72 -19.5 -131t-58.5 -103t-94.5 -68.5t-124.5 -24.5q-147 0 -212 81t-65 228zM209 20l1012 1346l88 -59l-1012 -1346zM217 1038q0 -111 40 -169t134 -58q74 0 119 60.5t45 158.5 q0 111 -40 167t-132 56q-76 0 -121 -59t-45 -156zM848 291q0 68 20.5 127t58.5 103t93 68.5t125 24.5q147 0 211.5 -79t64.5 -226q0 -141 -77.5 -233t-219.5 -92q-147 0 -211.5 79.5t-64.5 227.5zM967 305q0 -113 40 -170t134 -57q72 0 118 60.5t46 158.5q0 111 -40 167 t-132 56q-76 0 -121 -59.5t-45 -155.5z" />
<glyph unicode="&#x26;" horiz-adv-x="1542" d="M135 367q0 145 86 249.5t234 190.5q-102 106 -145.5 188t-43.5 170q0 61 22.5 117.5t64.5 99.5t104.5 69t142.5 26q74 0 129 -21.5t93 -58.5t57.5 -87t19.5 -108q0 -57 -15.5 -109.5t-50 -102.5t-92 -99t-141.5 -98q104 -115 234.5 -235t259.5 -230q63 84 104 201.5 t41 252.5v33h104q0 -152 -44 -292t-136 -257q98 -92 174 -161t111 -85q-25 -10 -49.5 -16t-48.5 -16q-47 23 -115 78t-141 127q-98 -96 -226.5 -154.5t-294.5 -58.5q-111 0 -193.5 32.5t-137 86t-81 124t-26.5 144.5zM240 377q0 -61 22.5 -117.5t67.5 -99.5t110.5 -68.5 t149.5 -25.5q141 0 250.5 53t187.5 133q-135 117 -271 245t-243 246q-154 -92 -214 -179t-60 -187zM371 1165q0 -70 46 -146.5t124 -162.5q57 35 104 70t81 73.5t51.5 85t17.5 103.5q0 94 -53.5 148.5t-151.5 54.5q-53 0 -94 -18.5t-69 -50.5t-42 -73t-14 -84z" />
<glyph unicode="'" horiz-adv-x="339" d="M113 1430h114l-18 -437h-78z" />
<glyph unicode="(" horiz-adv-x="555" d="M119 573q0 252 68.5 482.5t232.5 443.5l84 -18q-147 -203 -216 -432.5t-69 -468.5q0 -264 73 -486.5t212 -412.5l-86 -19q-164 209 -231.5 432t-67.5 479z" />
<glyph unicode=")" horiz-adv-x="555" d="M59 1481l86 18q170 -219 235.5 -445t65.5 -476q0 -256 -70.5 -483.5t-228.5 -432.5l-84 19q135 188 209 413t74 481q0 248 -67.5 474.5t-219.5 431.5z" />
<glyph unicode="*" horiz-adv-x="780" d="M82 1202q10 23 18.5 42.5t18.5 41.5q59 -29 117.5 -57.5t117.5 -57.5q-4 72 -7 143.5t-7 143.5h90q-4 -72 -7 -143.5t-7 -143.5q59 29 117.5 57.5t117.5 57.5q10 -23 18.5 -42t18.5 -40q-63 -23 -124.5 -44t-123.5 -44q53 -49 103.5 -99t103.5 -99q-14 -16 -28.5 -32 t-28.5 -32l-205 215l-178 -215l-72 64l195 196z" />
<glyph unicode="+" horiz-adv-x="1212" d="M141 559v86h416v424h94v-424h420v-86h-418v-424h-94v424h-418z" />
<glyph unicode="," horiz-adv-x="428" d="M47 -242q68 102 88.5 190.5t20.5 160.5q-4 16 -4 36q0 39 22.5 50.5t67.5 11.5q20 -51 20 -123q0 -70 -32.5 -158t-118.5 -186q-16 4 -32 9t-32 9z" />
<glyph unicode="-" horiz-adv-x="729" d="M121 557v92h497v-92h-497z" />
<glyph unicode="." horiz-adv-x="428" d="M129 70q0 35 24.5 58.5t59.5 23.5t60.5 -23.5t25.5 -58.5t-24.5 -60.5t-59.5 -25.5q-37 0 -61.5 25.5t-24.5 60.5z" />
<glyph unicode="/" horiz-adv-x="804" d="M6 -276l707 1759h98l-709 -1759h-96z" />
<glyph unicode="0" d="M111 680q0 199 34.5 338t96 227t143.5 127t178 39q86 0 163 -32.5t134.5 -112.5t91 -216t33.5 -343q0 -203 -39 -342.5t-101.5 -225.5t-143 -122.5t-166.5 -36.5q-96 0 -175 36.5t-134.5 119.5t-85 217t-29.5 327zM217 694q0 -150 18.5 -266.5t58.5 -197t102.5 -122.5 t150.5 -42q154 0 242 160.5t88 465.5q0 336 -82 484.5t-244 148.5q-147 0 -240.5 -153.5t-93.5 -477.5z" />
<glyph unicode="1" d="M160 1270q117 41 233.5 80t237.5 69v-1331h330v-88h-791v88h356v1212l-352 -126q-2 41 -6 56t-8 40z" />
<glyph unicode="2" d="M111 0v92l387 400q90 92 150.5 161.5t96 130t51 117.5t15.5 125q0 133 -78 216t-225 83q-104 0 -190.5 -42t-145.5 -95q-6 27 -11 51.5t-11 48.5q31 20 69.5 42t84.5 40.5t99.5 29.5t112.5 11q102 0 178 -28.5t125 -79t74 -118t25 -145.5t-17.5 -144.5t-58.5 -135 t-107.5 -145t-163.5 -175.5q-86 -86 -170 -174t-170 -174v-4q39 0 92.5 1t134.5 1h197.5h286.5v-90h-831z" />
<glyph unicode="3" d="M154 37l8 104q61 -35 135 -54t139 -19q184 0 281.5 86t97.5 221q0 154 -106.5 231.5t-292.5 77.5q-31 0 -79 -1t-77 -3v88h59q223 0 340 77t117 224q0 113 -73.5 184.5t-208.5 71.5q-82 0 -155 -24.5t-140 -63.5l-9 98q66 29 143 52.5t171 23.5q92 0 163.5 -24.5 t119 -68.5t72 -103.5t24.5 -127.5q0 -133 -71 -222t-206 -128v-4q66 -4 123 -30.5t100 -70.5t69 -104.5t26 -134.5q0 -94 -35 -170t-100.5 -130t-157.5 -83.5t-207 -29.5q-72 0 -144.5 16t-125.5 41z" />
<glyph unicode="4" d="M45 451q160 236 318.5 470t318.5 470h125v-930h227v-90h-227v-371h-102v371h-658q0 20 -1 39.5t-1 40.5zM158 459q61 0 136 1t148.5 1h142.5h120v301v211v139v84t1 45t1 25h-5q-133 -205 -270 -404.5t-274 -402.5z" />
<glyph unicode="5" d="M174 20v107q59 -29 127 -44t133 -15q96 0 169 25.5t121 71.5t72.5 109.5t24.5 137.5q0 158 -102.5 242.5t-290.5 84.5q-59 0 -118.5 -5t-96.5 -9v666h661v-95h-567v-477q33 2 74 4t76 2q121 0 210 -30.5t147 -85t86 -127t28 -156.5q0 -92 -33 -173t-96.5 -141.5 t-158.5 -96t-218 -35.5q-70 0 -134.5 12t-113.5 28z" />
<glyph unicode="6" d="M127 584q0 197 41 349t117.5 258.5t187.5 162t250 55.5q41 0 87 -6t75 -14v-99q-33 14 -70 22.5t-82 8.5q-129 0 -220 -51t-151.5 -143.5t-92 -218.5t-44.5 -275h4q47 104 140.5 168.5t222.5 64.5q98 0 173 -33.5t125 -91t76.5 -133t26.5 -159.5q0 -102 -30.5 -188.5 t-88 -149t-137.5 -97t-178 -34.5q-201 0 -316.5 153.5t-115.5 450.5zM248 453q0 -74 20.5 -144.5t62.5 -125t102.5 -87.5t139.5 -33q74 0 132.5 28t99.5 77t62.5 115.5t21.5 144.5q0 74 -19.5 137.5t-58.5 111.5t-98.5 75.5t-137.5 27.5t-139 -30.5t-103 -78.5t-63.5 -106.5 t-21.5 -111.5z" />
<glyph unicode="7" d="M109 1298v93h874v-56q-160 -336 -305.5 -674.5t-265.5 -660.5h-117q125 317 266 643t301 655h-753z" />
<glyph unicode="8" d="M125 322q0 127 85 222t239 173v2q-283 135 -283 352q0 72 27.5 133.5t80 107.5t125 72.5t162.5 26.5q170 0 269.5 -88t99.5 -233q0 -115 -76 -203t-213 -160v-2q68 -29 127 -64.5t104.5 -83t72 -106.5t26.5 -135q0 -70 -29 -134.5t-84 -113.5t-138 -78.5t-190 -29.5 q-90 0 -164.5 24.5t-128 68.5t-83 107.5t-29.5 141.5zM231 328q0 -53 20.5 -100.5t60.5 -83t100.5 -57t140.5 -21.5q72 0 129 21.5t97 56t61.5 82t21.5 98.5q0 123 -85 203.5t-238 144.5q-137 -66 -222.5 -144.5t-85.5 -199.5zM272 1083q0 -102 65.5 -174.5t213.5 -138.5 q129 59 200.5 136t71.5 173q0 121 -78.5 182.5t-197.5 61.5q-121 0 -198 -67.5t-77 -172.5z" />
<glyph unicode="9" d="M109 948q0 104 31.5 189.5t90 145.5t137 94t175.5 34q80 0 156.5 -25.5t137 -93t96.5 -185.5t36 -300q0 -213 -43 -368.5t-121 -257t-190.5 -150.5t-249.5 -49q-49 0 -97.5 7t-93.5 15v102q41 -16 89 -27t97 -11q217 0 337 130t149 382q4 41 8 77.5t8 77.5h-4 q-53 -119 -148.5 -166t-203.5 -47q-92 0 -166 32t-125 88t-78.5 134t-27.5 172zM215 967q0 -166 84 -260.5t225 -94.5q74 0 134.5 26t102.5 69t65.5 101t23.5 124q0 86 -22.5 157.5t-63.5 124t-100.5 82t-133.5 29.5t-132 -27.5t-99 -75.5t-62.5 -114t-21.5 -141z" />
<glyph unicode=":" horiz-adv-x="518" d="M195 70q0 35 24.5 58.5t61.5 23.5q35 0 59.5 -23.5t24.5 -58.5t-25 -60.5t-59 -25.5q-37 0 -61.5 25.5t-24.5 60.5zM195 852q0 35 24.5 59.5t61.5 24.5q35 0 59.5 -24.5t24.5 -59.5t-25 -59.5t-59 -24.5q-37 0 -61.5 24.5t-24.5 59.5z" />
<glyph unicode=";" horiz-adv-x="518" d="M115 -242q68 102 88 190.5t20 160.5q-4 16 -4 28q0 62 88 62q20 -51 21 -115q0 -70 -32 -158t-118 -186q-16 4 -31.5 9t-31.5 9zM197 852q0 35 25.5 58.5t60.5 23.5t59.5 -23.5t24.5 -58.5t-25 -59.5t-59 -24.5q-35 0 -60.5 24.5t-25.5 59.5z" />
<glyph unicode="&#x3c;" horiz-adv-x="1212" d="M199 608q182 127 361 252t362 252q10 -20 19 -40.5t20 -41.5q-154 -109 -306.5 -213t-308.5 -213l-2 -2q156 -98 309.5 -197.5t307.5 -199.5q-10 -23 -19.5 -43.5t-19.5 -42.5z" />
<glyph unicode="=" horiz-adv-x="1212" d="M158 381v88h897v-88h-897zM158 735v88h897v-88h-897z" />
<glyph unicode="&#x3e;" horiz-adv-x="1212" d="M250 203q154 100 307.5 199.5t308.5 199.5v2q-156 106 -309.5 211t-306.5 211q10 23 19.5 44.5t19.5 41.5q182 -129 362 -255t361 -259l-723 -479q-20 41 -39 84z" />
<glyph unicode="?" horiz-adv-x="892" d="M193 1284q6 35 6 56.5t2 48.5q43 16 98 32.5t117 16.5q92 0 161.5 -31t116.5 -80t72 -109.5t25 -117.5q0 -61 -16.5 -111.5t-46.5 -95.5t-68.5 -88t-84.5 -86q-33 -31 -57 -59.5t-39.5 -59.5t-24 -67.5t-8.5 -81.5t15 -91h-101q-10 27 -12 51.5t-2 47.5q0 76 24.5 132 t61.5 103t81 89t81 87t61.5 97.5t24.5 122.5q0 106 -64.5 176.5t-193.5 70.5q-57 0 -115.5 -18.5t-113.5 -34.5zM326 68q0 35 24.5 59.5t59.5 24.5t60.5 -24.5t25.5 -59.5t-26 -58.5t-60 -23.5q-35 0 -59.5 23.5t-24.5 58.5z" />
<glyph unicode="@" horiz-adv-x="1982" d="M176 600q0 186 67.5 346t184.5 276.5t274.5 183.5t337.5 67q184 0 325.5 -56.5t237 -154t143.5 -225.5t48 -271q0 -125 -31.5 -226.5t-87 -172t-131.5 -109.5t-162 -39q-121 0 -175 61.5t-54 153.5q0 6 1 13.5t1 13.5h-4q-33 -104 -110.5 -167t-178.5 -63 q-135 0 -198.5 85t-63.5 225q0 98 23.5 192t67.5 168t110.5 119t152.5 45q49 0 92.5 -18.5t77.5 -42.5h2q2 16 2 33.5t2 35.5q49 0 96.5 -2t86.5 -6q-6 -37 -16.5 -109.5t-20.5 -154.5t-19.5 -157t-15.5 -114q-2 -12 -3 -24t-1 -23q0 -84 40 -129t118 -45q63 0 118.5 32 t95.5 90t62.5 140t22.5 185q0 127 -39 241.5t-120 201.5t-206 138.5t-297 51.5q-164 0 -302 -61.5t-238.5 -167t-156.5 -248t-56 -304.5q0 -156 46 -285.5t134 -223t217 -145.5t297 -52q199 0 373 71l4 -46t4 -48q-88 -31 -186.5 -48t-206.5 -17q-182 0 -327 57t-247 160.5 t-156.5 248t-54.5 320.5zM702 557q0 -41 7.5 -71.5t17.5 -53.5q25 -123 131 -123q57 0 109.5 37t94.5 102.5t71.5 155.5t44.5 197q4 12 7 25.5t7 25.5q-16 78 -63.5 111.5t-106.5 33.5q-82 0 -141.5 -37.5t-99.5 -99t-59.5 -141.5t-19.5 -162z" />
<glyph unicode="A" horiz-adv-x="1224" d="M29 0l532 1411h109l526 -1411h-121l-145 412h-641l-146 -412h-114zM324 502h573l-235 647q-16 41 -27.5 73.5t-24.5 65.5h-2q-10 -31 -22.5 -66.5t-26.5 -70.5z" />
<glyph unicode="B" horiz-adv-x="1132" d="M197 0v1411h63t99.5 1t108.5 1h89q201 0 300 -89t99 -239q0 -129 -71.5 -217t-188.5 -123v-4q156 -16 236 -107t80 -228q0 -70 -21.5 -141.5t-76 -131t-146.5 -97.5t-233 -38h-66.5t-102 1t-101.5 1h-68zM301 92q8 0 38 -1t65.5 -2t70.5 -1h57q98 0 169 23.5t116 65.5 t65.5 98t20.5 124q0 82 -33.5 137.5t-92 89t-136.5 48t-168 14.5h-172v-596zM301 778q10 0 33.5 -1t49.5 -1h49.5h35.5q182 0 280.5 76t98.5 217q0 117 -70.5 186.5t-249.5 69.5h-47.5t-66.5 -1t-67 -1h-46v-545z" />
<glyph unicode="C" horiz-adv-x="1247" d="M111 678q0 172 45 311t132 237.5t214 152t291 53.5q96 0 178 -14.5t149 -35.5l-14 -104q-72 29 -155 46t-177 17q-135 0 -237.5 -47t-173 -132t-106.5 -204.5t-36 -265.5q0 -154 39 -270.5t110.5 -194t173 -116.5t226.5 -39q98 0 189.5 22.5t158.5 57.5l15 -97 q-72 -29 -167.5 -52t-217.5 -23q-152 0 -270 49t-199.5 139t-124.5 220t-43 290z" />
<glyph unicode="D" horiz-adv-x="1400" d="M197 0v1411q23 0 72.5 1t106 1t110 1t81.5 1q342 0 531.5 -171t189.5 -523q0 -160 -52 -292t-151.5 -228.5t-242 -149.5t-322.5 -53h-76t-96 1t-91 1h-60zM301 94q14 -2 46 -3t67 -2t66.5 -1h43.5q145 0 266 37t207 113.5t134.5 195.5t48.5 283q0 297 -156 452.5 t-473 155.5h-54t-75 -1t-73 -1h-48v-1229z" />
<glyph unicode="E" horiz-adv-x="1036" d="M197 0v1411h669v-88h-565v-559h533v-90h-533v-584h580v-90h-684z" />
<glyph unicode="F" horiz-adv-x="960" d="M197 0v1411h669v-88h-565v-565h530v-90h-530v-668h-104z" />
<glyph unicode="G" horiz-adv-x="1409" d="M104 684q0 150 48.5 286t139.5 238.5t224 163t305 60.5q111 0 200 -19.5t173 -48.5q-4 -27 -8 -52.5t-8 -54.5q-86 35 -176.5 59.5t-194.5 24.5q-125 0 -233.5 -45t-188.5 -129t-125 -202.5t-45 -264.5q0 -152 42 -269.5t118 -197t182.5 -121.5t233.5 -42q102 0 182 20.5 t139 46.5v457h-151v106h258v-618q-98 -47 -212 -74.5t-235 -27.5q-150 0 -272.5 49t-210.5 141t-136.5 222t-48.5 292z" />
<glyph unicode="H" horiz-adv-x="1425" d="M197 0v1411h104v-639h821v639h107v-1411h-107v682h-821v-682h-104z" />
<glyph unicode="I" horiz-adv-x="497" d="M197 0v1411h104v-1411h-104z" />
<glyph unicode="J" horiz-adv-x="663" d="M8 -4v100q31 -10 68 -17t69 -7q113 0 166.5 83t53.5 279v977h106v-983q0 -213 -79 -329.5t-259 -116.5q-29 0 -63.5 4t-61.5 10z" />
<glyph unicode="K" horiz-adv-x="1132" d="M195 0v1411h106l2 -676q164 164 318.5 334t312.5 342h135q-162 -172 -323.5 -342t-321.5 -342q170 -182 337 -363.5t337 -363.5h-152q-158 180 -313.5 359.5t-329.5 353.5l-2 -713h-106z" />
<glyph unicode="L" horiz-adv-x="905" d="M197 0v1411h104v-1321h555v-90h-659z" />
<glyph unicode="M" horiz-adv-x="1781" d="M154 0l110 1411h127l428 -1100q14 -35 32.5 -86t33.5 -92h4q16 45 30.5 90t30.5 86l430 1102h131l117 -1411h-108l-78 981q-10 90 -14.5 159.5t-6.5 110.5h-4q-10 -31 -24.5 -71.5t-34.5 -85.5l-428 -1094h-94l-418 1063q-20 47 -38 97t-32 95h-2q-4 -53 -7 -120.5 t-13 -143.5l-62 -991h-110z" />
<glyph unicode="N" horiz-adv-x="1456" d="M195 0v1411h120q182 -268 313.5 -460.5t220.5 -324.5t145.5 -214t90 -132.5t50 -77t30.5 -48.5h2q-6 96 -8 212.5t-2 267v342v435.5h107v-1411h-117q-213 317 -431 628.5t-423 635.5h-2q4 -96 6 -213t3 -267.5t1 -343v-440.5h-106z" />
<glyph unicode="O" horiz-adv-x="1492" d="M104 692q0 168 48.5 305.5t136.5 233.5t208.5 149.5t268.5 53.5q143 0 259 -51.5t197 -143.5t124 -223t43 -291q0 -184 -51.5 -323.5t-139.5 -232.5t-208 -141t-255 -48q-158 0 -275.5 54t-196.5 149.5t-119 225.5t-40 283zM217 709q0 -145 35 -262t102.5 -201 t164.5 -129t224 -45q111 0 208.5 41t170 120.5t113.5 198.5t41 273q0 156 -37 274.5t-106.5 199.5t-167 121.5t-215.5 40.5q-111 0 -208.5 -43t-169 -124.5t-113.5 -199.5t-42 -265z" />
<glyph unicode="P" horiz-adv-x="1081" d="M197 0v1409q20 0 64 1t93 2t95.5 2t70.5 1q213 0 336 -97t123 -296q0 -90 -35 -172t-101.5 -144.5t-161.5 -99.5t-216 -37h-33.5t-49.5 1t-49.5 2t-31.5 1v-573h-104zM301 666q8 0 32.5 -1t51.5 -2t51.5 -1h34.5q100 0 175 26.5t124 72.5t73.5 108.5t24.5 136.5 q0 164 -93 240.5t-279 76.5h-43h-58.5t-56.5 -1t-37 -1v-655z" />
<glyph unicode="Q" horiz-adv-x="1558" d="M109 702q0 162 44 300.5t132 239.5t217 158.5t299 57.5q150 0 269.5 -53t203.5 -148.5t130 -227.5t46 -290q0 -156 -38 -288t-110.5 -230t-180 -160.5t-244.5 -78.5l139 -154l178 -180h-139l-293 327q-160 2 -282 59.5t-204.5 156t-124.5 230.5t-42 281zM213 713 q0 -150 40 -269.5t112.5 -203.5t176 -129t230.5 -45t232.5 42t181.5 123.5t118 204.5t42 287q0 160 -41 280.5t-115 201.5t-177.5 122t-228.5 41q-123 0 -227 -46t-181 -131t-120 -207t-43 -271z" />
<glyph unicode="R" horiz-adv-x="1118" d="M195 0v1411q103 4 211 5h20q99 0 205 -9q156 -10 241.5 -105.5t85.5 -242.5q0 -90 -34.5 -161t-93 -121t-135.5 -78.5t-160 -34.5h10q37 -27 73.5 -61t88.5 -107q94 -137 169.5 -261t143.5 -237l-129 2q-53 86 -101.5 176t-101.5 178q-129 215 -297 295h-90v-649h-106z M301 741q37 0 83 -1t101 -1q170 0 268.5 80t98.5 223q0 147 -92 216t-260 69q-72 0 -116 -1t-83 -3v-582z" />
<glyph unicode="S" horiz-adv-x="1026" d="M133 39q2 29 5 55.5t5 55.5q70 -37 147 -57.5t146 -20.5q164 0 260.5 71.5t96.5 202.5q0 61 -18.5 106.5t-55.5 81t-90.5 66.5t-120.5 68q-78 41 -145.5 78.5t-118.5 81.5t-81 101.5t-30 135.5q0 74 28.5 140.5t84 116.5t137.5 80t190 30q68 0 136.5 -11.5t115.5 -23.5 q-4 -27 -5 -52.5t-5 -52.5q-49 20 -114.5 34.5t-137.5 14.5q-164 0 -243.5 -75.5t-79.5 -188.5q0 -61 21.5 -105t59 -79t90 -65.5t113.5 -65.5q74 -39 142.5 -76t121 -82t83 -103.5t30.5 -138.5t-30.5 -149.5t-90 -121.5t-147.5 -81.5t-201 -29.5q-78 0 -161 17t-138 42z " />
<glyph unicode="T" horiz-adv-x="1058" d="M49 1321v90h963v-90h-428v-1321h-107v1321h-428z" />
<glyph unicode="U" horiz-adv-x="1392" d="M188 508v903h105v-889q0 -92 17.5 -174t62.5 -144.5t123.5 -98t199.5 -35.5q201 0 303.5 108.5t102.5 353.5v879h102v-860q0 -571 -522 -571q-143 0 -238.5 38.5t-151.5 108.5t-80 167t-24 214z" />
<glyph unicode="V" horiz-adv-x="1259" d="M47 1411h123l451 -1278h2q4 14 12 35.5t25.5 70t48 131.5t81 219t125 336.5t181.5 485.5h112l-542 -1411h-99z" />
<glyph unicode="W" horiz-adv-x="1873" d="M59 1411h117l344 -1280h4q2 14 7.5 34.5t18.5 65.5t35.5 127t62.5 219.5t99.5 341t145.5 492.5h106l365 -1280h2q2 12 7 30.5t16.5 62.5t33 125t58.5 219.5t92 343t133 499.5h109l-394 -1411h-116l-363 1245h-2q-2 -12 -6 -30.5t-16.5 -62.5t-36 -123t-62.5 -213 t-99.5 -332.5t-144.5 -483.5h-118z" />
<glyph unicode="X" horiz-adv-x="1161" d="M53 0q117 180 232.5 359.5t232.5 359.5q-109 174 -214 346t-214 346h125q90 -154 180 -308.5t187 -301.5h2q102 145 191 300.5t181 309.5h121q-111 -172 -217 -342t-217 -344q117 -182 229.5 -362.5t229.5 -362.5h-131q-98 160 -195.5 322.5t-195.5 318.5h-2 q-100 -160 -202 -320.5t-200 -320.5h-123z" />
<glyph unicode="Y" horiz-adv-x="1073" d="M45 1411h117l373 -790h4q6 14 14 30.5t23.5 48t41 84t66.5 135t99.5 203.5t140.5 289h112l-450 -883v-528h-107v526z" />
<glyph unicode="Z" horiz-adv-x="1132" d="M82 0v49l827 1270h-784v94h915v-49l-825 -1270h823v-94h-956z" />
<glyph unicode="[" horiz-adv-x="571" d="M160 -354v1845h342v-82h-246v-1681h246v-82h-342z" />
<glyph unicode="\" horiz-adv-x="796" d="M6 1483h98l707 -1759h-96z" />
<glyph unicode="]" horiz-adv-x="571" d="M70 -272h245v1681h-245v82h342v-1845h-342v82z" />
<glyph unicode="^" d="M143 713q88 176 174 350t175 350h71l369 -700q-23 -4 -45.5 -9.5t-44.5 -9.5q-78 154 -158 304.5t-158 301.5h-2q-74 -152 -148.5 -302t-148.5 -304q-20 4 -40.5 9.5t-43.5 9.5z" />
<glyph unicode="_" horiz-adv-x="1011" d="M0 -303h1012v-90h-1012v90z" />
<glyph unicode="`" horiz-adv-x="647" d="M156 1481l90 28l231 -297l-74 -24z" />
<glyph unicode="a" horiz-adv-x="1040" d="M109 254q0 90 37.5 150.5t117.5 101.5t203 65.5t291 40.5q0 176 -52.5 259t-195.5 83q-84 0 -167 -30.5t-148 -79.5q-4 25 -8.5 51.5t-8.5 50.5q63 37 155.5 66.5t188.5 29.5q180 0 260 -93q78 -91 78 -257v-8l-4 -385q-2 -74 -2 -156t8 -143h-98v215h-4 q-41 -104 -136.5 -169.5t-222.5 -65.5q-70 0 -124 22.5t-92 59t-57 87t-19 105.5zM215 266q0 -80 52 -140t153 -60q74 0 136 30.5t106.5 85t70 126t25.5 153.5v67q-160 -16 -264.5 -35.5t-166 -49t-87 -72.5t-25.5 -105z" />
<glyph unicode="b" horiz-adv-x="1148" d="M164 0v1516l92 -21v-676h4q47 100 148.5 165t234.5 65q100 0 177 -36t130.5 -100.5t81 -157.5t27.5 -206q0 -123 -32 -228.5t-91 -182.5t-144 -120t-192 -43q-70 0 -125 19.5t-97 49.5t-70.5 66.5t-47.5 71.5h-4v-182h-92zM256 434q0 -66 21.5 -133.5t65.5 -120.5 t109.5 -87t155.5 -34q80 0 145.5 36t111.5 100.5t72 153.5t26 198q0 100 -25 178t-69 131t-104 81t-134 28q-109 0 -180.5 -41t-114.5 -101.5t-61.5 -131t-18.5 -128.5v-129z" />
<glyph unicode="c" horiz-adv-x="911" d="M94 485q0 127 35 229.5t98.5 175.5t153.5 111.5t203 38.5q76 0 141.5 -13t114.5 -34l-15 -98q-49 23 -115.5 42t-144.5 19q-86 0 -152.5 -34.5t-113.5 -95t-71.5 -144.5t-24.5 -182q0 -96 19.5 -175t62.5 -136.5t109.5 -89t160.5 -31.5q82 0 150.5 20.5t121.5 50.5 l15 -92q-55 -27 -133 -46t-168 -19t-171 29.5t-142.5 92t-97.5 157.5t-36 224z" />
<glyph unicode="d" horiz-adv-x="1144" d="M94 475q0 129 33 232.5t92.5 176t142 111.5t183.5 39q53 0 102 -16.5t89 -42t72 -57t52 -64.5v641l94 10v-1505h-94v219h-4q-45 -104 -137 -171.5t-227 -67.5q-98 0 -173 36.5t-125.5 102t-75 157t-24.5 199.5zM201 481q0 -90 18.5 -166.5t56 -132t94 -87.5t132.5 -32 q94 0 161.5 42t110.5 104.5t62.5 136.5t19.5 139v250q-23 43 -52.5 83t-68.5 68.5t-89 46t-111 17.5q-154 0 -244 -125t-90 -344z" />
<glyph unicode="e" horiz-adv-x="1030" d="M94 512q0 109 31 205t87 168.5t139 114.5t188 42q104 0 179 -37.5t121 -101t67.5 -147.5t21.5 -174v-22.5t-2 -29.5h-723v-22q0 -219 93 -329.5t267 -110.5q86 0 164 25.5t145 72.5q4 -25 7.5 -49.5t7.5 -46.5q-68 -39 -154 -64.5t-190 -25.5q-100 0 -182 30.5t-141.5 95 t-92.5 165t-33 241.5zM209 616h610q-2 162 -77.5 252t-209.5 90q-68 0 -123 -25.5t-97 -70.5t-67.5 -108.5t-35.5 -137.5z" />
<glyph unicode="f" horiz-adv-x="647" d="M23 936v86h217v131q0 104 27.5 174t73.5 113t106.5 61.5t127.5 18.5q82 0 144 -19l-6 -94q-33 14 -71 20.5t-77 6.5q-123 0 -174 -80t-51 -203v-129h303v-86h-303v-936h-100v936h-217z" />
<glyph unicode="g" horiz-adv-x="1144" d="M90 494q0 121 33 222t94.5 175t147.5 116t194 42q129 0 206 -53.5t120 -133.5h4v162h92v-948q0 -129 -25.5 -232.5t-86 -175t-159 -110.5t-245.5 -39q-86 0 -166 23.5t-139 54.5v96q74 -41 156.5 -65.5t150.5 -24.5q98 0 176 23.5t133 76.5t84 139t29 209v133h-4 q-59 -104 -154.5 -156.5t-212.5 -52.5q-86 0 -164 32t-136 95.5t-93 160.5t-35 231zM186 502q0 -117 28 -200t75 -137t109.5 -80t131.5 -26q90 0 158 32t112 83t66.5 117.5t22.5 136.5v203q0 61 -21.5 120.5t-62.5 107.5t-102.5 77t-141.5 29q-88 0 -157.5 -34t-117.5 -95.5 t-74 -146.5t-26 -187z" />
<glyph unicode="h" horiz-adv-x="1148" d="M186 0v1505l103 -20v-514q0 -49 -2 -88t-8 -74q2 0 2 -1t2 -1q47 104 139 169.5t225 65.5q88 0 148.5 -27.5t99.5 -76.5t56.5 -118.5t17.5 -155.5v-664h-101v633q0 164 -54 243.5t-187 79.5q-63 0 -124 -24.5t-109 -76.5t-76.5 -132t-28.5 -191v-532h-103z" />
<glyph unicode="i" horiz-adv-x="477" d="M168 1364q0 33 22.5 51.5t49.5 18.5q31 0 50 -18.5t19 -51.5q0 -29 -21.5 -50.5t-51.5 -21.5q-27 0 -47.5 18.5t-20.5 53.5zM188 0v1022h101v-1022h-101z" />
<glyph unicode="j" horiz-adv-x="487" d="M-172 -475l8 98q31 -16 68 -26.5t78 -10.5q125 0 171 88t46 269v1079h100v-1069q0 -231 -76 -344t-254 -113q-37 0 -74.5 9.5t-66.5 19.5zM182 1366q0 33 21.5 50.5t48.5 17.5q31 0 50.5 -17.5t19.5 -50.5q0 -29 -21.5 -49.5t-52.5 -20.5q-27 0 -46.5 17.5t-19.5 52.5z " />
<glyph unicode="k" horiz-adv-x="933" d="M186 0v1485l103 20l2 -962q111 119 218 238.5t218 238.5h127q-113 -121 -225.5 -241t-225.5 -240q123 -135 244 -269.5t244 -269.5h-141q-117 129 -230.5 260t-228.5 262l-2 -522h-103z" />
<glyph unicode="l" horiz-adv-x="477" d="M188 0v1487l101 20v-1507h-101z" />
<glyph unicode="m" horiz-adv-x="1765" d="M186 0v1020h105q0 -49 -3 -102.5t-7 -98.5q2 0 2 -1t2 -1q45 102 133 163.5t211 61.5q82 0 136 -24.5t87 -61t48 -79.5t20 -80q16 45 46.5 90t74.5 78.5t101.5 55t129.5 21.5q162 0 237.5 -99t75.5 -279v-664h-102v635q0 76 -10.5 135t-35 100t-68.5 63.5t-112 22.5 q-74 0 -133 -35.5t-100 -100t-63.5 -156t-22.5 -201.5v-463h-102v639q0 156 -51.5 236.5t-178.5 80.5q-76 0 -135 -35.5t-99 -101t-61.5 -158t-21.5 -204.5v-457h-103z" />
<glyph unicode="n" horiz-adv-x="1148" d="M188 0v1022h103v-43t-2 -64.5t-4 -63.5t-4 -40l4 -2q47 111 141 172t223 61q88 0 149.5 -28.5t100.5 -80.5t55.5 -123t16.5 -153v-657h-103v623q0 166 -53 249.5t-186 83.5q-76 0 -138.5 -31.5t-107.5 -87t-69.5 -130t-24.5 -162.5v-545h-101z" />
<glyph unicode="o" horiz-adv-x="1122" d="M92 506q0 129 36 228.5t99.5 168t151.5 104t194 35.5q94 0 177.5 -31.5t144.5 -96t96 -164t35 -234.5q0 -109 -30.5 -206t-90 -170.5t-149.5 -116.5t-207 -43q-109 0 -194 37.5t-143 107.5t-89 167t-31 214zM199 510q0 -203 95 -323.5t269 -120.5q80 0 145.5 29.5 t113.5 87t74 141.5t26 190q0 217 -93.5 329.5t-265.5 112.5q-76 0 -142.5 -28.5t-115.5 -85t-77.5 -139t-28.5 -193.5z" />
<glyph unicode="p" horiz-adv-x="1146" d="M164 -469v1493h92v-211h4q49 104 149.5 170t233.5 66q100 0 177 -36t129 -100.5t80 -157.5t28 -206q0 -123 -33 -228.5t-92.5 -182.5t-144.5 -120t-191 -43q-70 0 -124 19.5t-96 49.5t-69.5 66.5t-46.5 71.5h-4v-631zM256 434q0 -66 21.5 -133.5t65.5 -120.5t109.5 -87 t155.5 -34q80 0 145.5 36t112.5 100.5t73 153.5t26 198q0 100 -25 178t-70 131t-105 81t-134 28q-109 0 -180.5 -41t-114.5 -101.5t-61.5 -131t-18.5 -128.5v-129z" />
<glyph unicode="q" horiz-adv-x="1150" d="M90 485q0 129 35 233.5t97.5 177.5t149.5 113t189 40q70 0 123 -17.5t93 -46.5t67.5 -64.5t46.5 -70.5h4v174h92v-1493l-92 20v658h-4q-23 -47 -56.5 -89t-79.5 -75t-105.5 -51.5t-133.5 -18.5q-104 0 -183 40t-133.5 109t-82 162t-27.5 199zM186 489q0 -88 21.5 -165.5 t64.5 -136t105.5 -93.5t144.5 -35q106 0 178 41t115 100.5t61.5 129t18.5 129.5v139q0 66 -19.5 131.5t-61.5 117.5t-106.5 85t-152.5 33q-84 0 -151.5 -34t-115.5 -95.5t-75 -149.5t-27 -197z" />
<glyph unicode="r" horiz-adv-x="704" d="M186 0v1020h103q0 -55 -3 -119.5t-12 -128.5h5q29 113 103.5 189.5t190.5 76.5q23 0 44.5 -3t41.5 -7q-2 -27 -2 -51.5v-50.5q-23 6 -45 12t-47 6q-119 0 -198.5 -119.5t-79.5 -375.5v-449h-101z" />
<glyph unicode="s" horiz-adv-x="847" d="M117 760q0 129 98 205.5t262 76.5q59 0 116.5 -13t96.5 -30q-2 -25 -4 -49t-4 -51q-47 27 -104.5 42t-116.5 15q-117 0 -178.5 -51t-61.5 -135q0 -63 38 -103t95.5 -70t125 -54.5t125 -59t95 -84t37.5 -127.5q0 -55 -24.5 -108t-71.5 -94t-119.5 -65.5t-167.5 -24.5 q-68 0 -133 15t-102 34q2 29 4 55.5t6 54.5q47 -33 114.5 -52t127.5 -19q127 0 194.5 55t67.5 141q0 57 -38 96t-95.5 68t-125 56.5t-124.5 62.5t-95 85t-38 128z" />
<glyph unicode="t" horiz-adv-x="692" d="M10 936v86h217v301q10 4 39 11t62 20v-332h301v-86h-301v-639q0 -127 33.5 -176t125.5 -49q35 0 73 9t65 19l8 -90q-35 -10 -80 -19t-86 -9q-133 0 -186.5 66.5t-53.5 213.5v674h-217z" />
<glyph unicode="u" horiz-adv-x="1150" d="M178 381v641h103v-608q0 -170 53 -259t192 -89q76 0 137.5 30.5t105.5 85t67.5 131t23.5 168.5v541h103v-1022h-105q0 12 1 43t2 64.5t3 63.5t4 40l-4 2q-47 -115 -139 -174t-215 -59q-92 0 -155.5 28.5t-102.5 80.5t-56.5 127t-17.5 165z" />
<glyph unicode="v" horiz-adv-x="944" d="M25 1022h116l328 -918h2q4 10 8 24.5t15.5 47.5t33 91.5t57.5 156.5t90 243.5t132 354.5h113l-402 -1022h-102z" />
<glyph unicode="w" horiz-adv-x="1521" d="M41 1022h117l260 -911h4q4 12 8 27.5t14.5 48t29 91t49 155.5t75.5 240.5t109 348.5h110l277 -913h4q2 10 6 25.5t14 48t27.5 90t47.5 155.5t73 242.5t104 351.5h109l-330 -1022h-113l-280 885h-4q-4 -12 -8.5 -28.5t-14.5 -50.5t-28.5 -90.5t-48 -150.5t-73.5 -232 t-106 -333h-117z" />
<glyph unicode="x" horiz-adv-x="966" d="M49 0q94 125 186.5 250t186.5 252q-92 129 -180 259t-181 259h127q72 -113 145 -220.5t150 -221.5h2q80 111 154 221t147 221h121q-92 -129 -184 -257t-184 -257q92 -127 185 -253t185 -253h-135q-72 109 -145.5 218.5t-151.5 215.5q-78 -104 -152.5 -216t-148.5 -218 h-127z" />
<glyph unicode="y" horiz-adv-x="933" d="M-23 -489l9 96q18 -6 46.5 -10.5t53.5 -4.5q80 0 141.5 49.5t118.5 176.5l70 186l-391 1018h116l326 -901h4q4 8 9 22.5t17.5 48t35 92t57.5 156t87 239.5t124 343h110l-456 -1190q-39 -96 -80 -160.5t-87 -103.5t-100.5 -55.5t-119.5 -16.5q-23 0 -48.5 5t-42.5 10z" />
<glyph unicode="z" horiz-adv-x="925" d="M82 0v51q154 221 307.5 440.5t306.5 442.5q-35 0 -75.5 -1t-107.5 -1h-164h-240v88h720v-45q-154 -223 -306 -443.5t-306 -443.5h77t112.5 1t170 1h248.5v-90h-743z" />
<glyph unicode="{" horiz-adv-x="618" d="M84 547v76q57 6 95 20t60.5 42t33 71t10.5 106v312q0 70 14 124t47 94t86 64.5t131 32.5v-76q-109 -4 -145.5 -67.5t-36.5 -171.5v-308q0 -123 -43 -189.5t-129 -88.5v-2q104 -23 138 -100.5t34 -209.5v-299q0 -63 7 -108t27.5 -76t56.5 -46t91 -17v-74q-78 0 -131 22.5 t-86 62.5t-47 97.5t-14 128.5v309q0 68 -6.5 116t-28 81t-60 50.5t-104.5 23.5z" />
<glyph unicode="|" horiz-adv-x="497" d="M203 -496v2048h90v-2048h-90z" />
<glyph unicode="}" horiz-adv-x="612" d="M63 -270q109 4 146 63.5t37 183.5v299q0 129 33.5 208t140.5 102v2q-174 37 -174 274v312q0 113 -37 175t-146 64v76q158 -18 219.5 -97t61.5 -218v-308q0 -66 9 -108.5t32 -71.5t60.5 -43t95.5 -20v-76q-66 -6 -105 -23.5t-59.5 -50.5t-26.5 -81t-6 -116v-309 q0 -143 -63.5 -227t-217.5 -84v74z" />
<glyph unicode="~" d="M123 664q0 109 59.5 182.5t175.5 73.5q74 0 123 -32t84 -65q47 -47 83 -72.5t93 -25.5q78 0 114 51t40 121l80 -2q-4 -113 -65.5 -183.5t-172.5 -70.5q-72 0 -118 28.5t-84.5 64.5t-75.5 64.5t-88 28.5q-84 0 -125 -47t-43 -118z" />
<glyph unicode="&#xa1;" horiz-adv-x="602" d="M205 956q0 35 24.5 60.5t59.5 25.5q37 0 61.5 -25.5t24.5 -60.5t-24.5 -58.5t-61.5 -23.5q-35 0 -59.5 24t-24.5 58zM229 -410l19 1069h86l16 -1069h-121z" />
<glyph unicode="&#xa2;" />
<glyph unicode="&#xa3;" d="M137 641v88h225q-8 72 -13 142.5t-5 142.5q0 190 97.5 293.5t263.5 103.5q63 0 117.5 -10t97.5 -27q-4 -23 -8.5 -47t-8.5 -47q-39 16 -86 29.5t-100 13.5q-133 0 -202 -81t-69 -228q0 -72 6.5 -142.5t14.5 -142.5h328v-88h-322q4 -47 7 -90t3 -86q0 -125 -48 -217 t-152 -160h698v-88h-831v82q111 66 171 156t60 200q0 49 -3 100.5t-7 102.5h-234z" />
<glyph unicode="&#xa4;" />
<glyph unicode="&#xa5;" d="M86 1391h115l348 -699h2q8 18 23.5 49t52.5 104t102.5 202t175.5 344h107l-387 -723h336v-84h-363v-213h363v-84h-363v-287h-104v287h-363v84h363v213h-363v84h336z" />
<glyph unicode="&#xa6;" horiz-adv-x="497" d="M203 324h90v-820h-90v820zM203 741v811h90v-811h-90z" />
<glyph unicode="&#xa7;" horiz-adv-x="991" d="M170 729q0 164 162 268q-51 49 -75 107.5t-24 109.5q0 55 18.5 106.5t57.5 90.5t96.5 61.5t135.5 22.5q37 0 83 -7t81 -22q-2 -25 -3.5 -48t-3.5 -48q-80 39 -163 39q-102 0 -149.5 -52t-47.5 -134q0 -45 20.5 -84t56.5 -77t86 -76t109 -79q92 -63 146.5 -145t54.5 -174 q0 -84 -40 -151.5t-120 -131.5q43 -43 64.5 -97t21.5 -108q0 -55 -21.5 -105t-62.5 -88t-99 -60.5t-134 -22.5q-45 0 -92 10t-88 27q4 25 5 49t3 49q53 -25 94 -37t86 -12q104 0 154.5 55t50.5 127q0 63 -34 112.5t-85 90.5q-72 57 -134.5 103t-108.5 93.5t-73.5 103.5 t-27.5 134zM274 739q0 -59 26 -107t69 -92t99 -86t120 -87q66 51 92.5 102.5t26.5 114.5q0 55 -26 102t-69 89t-98 82t-115 83q-125 -70 -125 -201z" />
<glyph unicode="&#xa8;" horiz-adv-x="991" d="M229 1296q0 35 25 54.5t53 19.5q31 0 53.5 -20.5t22.5 -53.5h2q0 -33 -22.5 -54t-55.5 -21q-29 0 -53.5 20.5t-24.5 54.5zM586 1296q0 35 24.5 54.5t53.5 19.5q31 0 54 -20.5t23 -53.5t-22.5 -54t-54.5 -21q-29 0 -53.5 20.5t-24.5 54.5z" />
<glyph unicode="&#xa9;" horiz-adv-x="1579" d="M86 702q0 147 55.5 277.5t150.5 227t222 151.5t272 55t273.5 -55t223.5 -150.5t150.5 -224.5t55.5 -276t-55.5 -277.5t-150.5 -227t-222 -151.5t-273 -55q-150 0 -277.5 55t-221.5 150.5t-148.5 224.5t-54.5 276zM174 705q0 -129 48 -244t131 -201t194.5 -135t238.5 -49 t240 49t196 134t131 199.5t48 243.5t-48 244t-131 201t-196 136t-240 50t-238.5 -49t-194.5 -134t-131 -199.5t-48 -245.5zM410 682q0 106 27.5 192.5t80.5 147.5t131 94t178 33q53 0 103.5 -13.5t83.5 -27.5l-4 -88q-37 20 -89.5 33.5t-107.5 13.5q-141 0 -223 -96.5 t-82 -272.5q0 -174 85 -267t220 -93q59 0 110.5 15.5t92.5 35.5l4 -82q-39 -16 -94.5 -34.5t-124.5 -18.5q-96 0 -169 32.5t-122 90t-74.5 135.5t-25.5 170z" />
<glyph unicode="&#xaa;" horiz-adv-x="757" />
<glyph unicode="&#xab;" horiz-adv-x="976" d="M129 563l258 344l92 -20l-235 -322l235 -315l-92 -23zM463 563l266 344l92 -20l-246 -322l246 -315l-92 -23z" />
<glyph unicode="&#xac;" horiz-adv-x="1212" d="M141 559v86h893v-465h-90v379h-803z" />
<glyph unicode="&#xad;" horiz-adv-x="1126" d="M90 555v109h946v-109h-946z" />
<glyph unicode="&#xae;" horiz-adv-x="1355" d="M121 866q0 125 43 235.5t118.5 192.5t177 129t216.5 47q117 0 218 -47t177 -128t119 -191.5t43 -235.5t-44 -235.5t-120 -192.5t-177 -129t-216 -47q-117 0 -218.5 47t-176 128t-117.5 190.5t-43 236.5zM205 868q0 -109 37 -205t101.5 -167.5t149.5 -113.5t183 -42 t184 42t150.5 112.5t101.5 165.5t37 204t-37 205t-101.5 169t-150.5 115t-184 42t-183 -41t-149.5 -113t-101.5 -168t-37 -205zM483 496v755h189q61 0 105 -16t72 -43t40 -62.5t12 -74.5q0 -90 -47 -144.5t-131 -68.5q4 -4 11 -12.5t16 -18.5q20 -6 44.5 -43t49 -85 t47 -99.5t39.5 -87.5h-101q-20 47 -42.5 101t-48 102.5t-55.5 84t-67 47.5h-49v-335h-84zM567 893h74q80 0 128 32.5t48 114.5q0 63 -33.5 103.5t-113.5 40.5h-103v-291z" />
<glyph unicode="&#xaf;" horiz-adv-x="735" d="M121 1233v86h491v-86h-491z" />
<glyph unicode="&#xb0;" horiz-adv-x="763" d="M137 1217q0 53 19.5 98t53.5 77.5t79 51t94 18.5q55 0 100 -19.5t77 -52t49.5 -77.5t17.5 -94q0 -53 -20.5 -98.5t-55.5 -78t-79 -51t-93 -18.5q-53 0 -97 18.5t-77 51t-50.5 76.5t-17.5 98zM227 1219q0 -74 43 -122t109 -48t112 48t46 120q0 66 -38 116.5t-118 50.5 q-63 0 -108.5 -47t-45.5 -118z" />
<glyph unicode="&#xb1;" horiz-adv-x="1212" d="M141 0v88h930v-88h-930zM141 647v86h418v418h94v-418h418v-86h-418v-420h-94v420h-418z" />
<glyph unicode="&#xb2;" horiz-adv-x="675" d="M98 647v86q53 51 103.5 102.5t103.5 102.5q78 78 109.5 133t31.5 119q0 55 -33.5 95t-103.5 40q-14 0 -34.5 -5t-43 -15.5t-45 -24.5t-39.5 -31l-24 92q35 23 87 44.5t112 21.5q59 0 102 -18.5t69.5 -47t39 -65.5t12.5 -74q0 -59 -21.5 -109.5t-61.5 -103.5 t-100.5 -113.5l-136.5 -136.5l336 -2v-90h-463z" />
<glyph unicode="&#xb3;" horiz-adv-x="661" d="M115 662q4 23 5 46t5 46q35 -23 74 -33t73 -10q86 0 125 41t39 100q0 139 -186 139q-16 0 -34.5 -1t-37.5 -1v78h60q94 0 136 39t42 102q0 47 -30 83t-101 36q-39 0 -73 -14.5t-60 -26.5q-4 20 -9.5 40t-9.5 42q37 16 81 27.5t91 11.5q53 0 92 -15.5t63.5 -41t37 -58 t12.5 -69.5q0 -59 -25.5 -107.5t-91.5 -77.5v-2q72 -16 107 -67.5t35 -114.5q0 -98 -68 -161.5t-195 -63.5q-35 0 -80 9t-77 24z" />
<glyph unicode="&#xb4;" horiz-adv-x="669" d="M182 1212l230 297l90 -28l-246 -293z" />
<glyph unicode="&#xb5;" horiz-adv-x="1210" d="M186 -442v1462h103v-600q0 -80 12 -144.5t43 -110.5t81 -70.5t128 -24.5q141 0 228 104.5t87 282.5v563h103v-672q0 -74 8 -127t31 -65q16 -8 27.5 -11.5t35.5 7.5q6 -16 9 -26.5t6.5 -20t7.5 -21t8 -27.5q-23 -27 -63 -45t-95 -18q-43 23 -59.5 60.5t-16.5 84.5 q0 31 7 66h-3q-47 -117 -137 -169t-200 -52q-168 0 -250 98h-4q4 -131 5 -251t3 -253z" />
<glyph unicode="&#xb6;" horiz-adv-x="1034" />
<glyph unicode="&#xb7;" horiz-adv-x="428" d="M125 666q0 37 25.5 61.5t62.5 24.5q39 0 64.5 -24.5t25.5 -61.5t-25.5 -62.5t-62.5 -25.5q-39 0 -64.5 25.5t-25.5 62.5z" />
<glyph unicode="&#xb8;" horiz-adv-x="647" d="M246 -410q41 16 71.5 28.5t50 26t29 33t9.5 48.5q0 33 -18.5 52t-47.5 32q-6 0 -12 -1.5t-15 -1.5q-10 68 -24 136q16 4 30.5 6t28.5 6q8 -16 15.5 -29.5t15.5 -27.5q53 -23 89 -58t36 -96q0 -49 -11.5 -77.5t-36 -48t-62.5 -34t-89 -35.5q-16 10 -29.5 20.5t-29.5 20.5z " />
<glyph unicode="&#xb9;" horiz-adv-x="659" d="M113 1313q72 25 141.5 47t146.5 45v-662l80 -49v-47h-256v88h82v565q-45 -18 -88 -36.5t-88 -34.5q-4 23 -9 43t-9 41z" />
<glyph unicode="&#xba;" horiz-adv-x="831" />
<glyph unicode="&#xbb;" horiz-adv-x="976" d="M154 250l247 321l-245 316l92 20l266 -336l-268 -344zM496 250l237 321l-235 316l94 20l256 -336l-260 -344z" />
<glyph unicode="&#xbc;" horiz-adv-x="1562" d="M113 1313q72 25 141.5 47t146.5 45v-662l80 -49v-47h-256v88h82v565q-45 -18 -88 -36.5t-88 -34.5q-4 23 -9 43t-9 41zM240 4q238 352 474 700.5t474 700.5q20 -6 40.5 -11.5t43.5 -11.5q-238 -350 -474.5 -698t-473.5 -698q-20 4 -41 9t-43 9zM877 212.5v33.5 q78 125 153.5 248.5t153.5 246.5h125v-483h114v-78h-114v-180h-90v180h-340q-2 16 -2 32.5zM983 258h236v274l-2 109q-12 -23 -27.5 -45.5t-28.5 -42.5z" />
<glyph unicode="&#xbd;" horiz-adv-x="1583" d="M113 1313q72 25 141.5 47t146.5 45v-662l80 -49v-47h-256v88h82v565q-45 -18 -88 -36.5t-88 -34.5q-4 23 -9 43t-9 41zM240 4q238 352 474 700.5t474 700.5q20 -6 40.5 -11.5t43.5 -11.5q-238 -350 -474.5 -698t-473.5 -698q-20 4 -41 9t-43 9zM975 0v86q53 51 103 102.5 t104 102.5q78 78 109.5 133t31.5 119q0 53 -30.5 94t-106.5 41q-14 0 -35 -5t-43.5 -15.5t-45 -25t-38.5 -30.5l-25 92q35 23 86.5 44.5t112.5 21.5q59 0 102 -18.5t70 -47t39 -65.5t12 -74q0 -78 -36.5 -150.5t-129.5 -158.5l-153 -154l336 -2v-90h-463z" />
<glyph unicode="&#xbe;" horiz-adv-x="1574" d="M115 662q4 23 5 45t5 47q74 -45 147 -45q86 0 125 42t39 101q0 139 -186 139q-16 0 -34.5 -1t-37.5 -1v78h60q94 0 136 39t42 102q0 47 -30 83t-101 36q-39 0 -73 -14.5t-60 -26.5q-4 20 -9.5 40t-9.5 42q37 16 81 27.5t91 11.5q53 0 92 -15.5t63.5 -41t37 -58 t12.5 -69.5q0 -59 -25.5 -107.5t-91.5 -77.5v-2q72 -16 107 -67.5t35 -114.5q0 -92 -60.5 -155.5t-175.5 -69.5q-47 0 -95 7t-89 26zM238 4q238 352 474 700.5t472 700.5q23 -6 43 -11.5t43 -11.5q-238 -350 -474.5 -698t-473.5 -698q-20 4 -42 9t-42 9zM864 246 q78 125 155 248.5t155 246.5h124v-483h115v-78h-115v-180h-92v180h-338q-2 16 -2 32.5t-2 33.5zM973 258h233v274q0 20 1 53t1 56h-2q-61 -96 -117.5 -190.5t-115.5 -192.5z" />
<glyph unicode="&#xbf;" horiz-adv-x="892" d="M133 -74q0 66 21.5 119t56.5 100.5t79 91.5t91 93q53 57 74.5 110.5t21.5 132.5q0 41 -12 91h100q12 -49 13 -91q0 -80 -25 -139t-61.5 -108.5t-80.5 -91t-81 -87t-61.5 -95.5t-24.5 -115q0 -106 64.5 -171t193.5 -65q57 0 115.5 12.5t115.5 28.5q-4 -25 -5 -51.5 t-3 -52.5q-55 -12 -116.5 -23.5t-123.5 -11.5q-90 0 -155.5 26.5t-109.5 71.5t-65.5 103.5t-21.5 121.5zM430 956q0 35 24.5 59.5t61.5 24.5q35 0 59.5 -24.5t24.5 -59.5t-24.5 -59.5t-59.5 -24.5q-37 0 -61.5 25t-24.5 59z" />
<glyph unicode="&#xc0;" horiz-adv-x="1224" />
<glyph unicode="&#xc1;" horiz-adv-x="1224" />
<glyph unicode="&#xc2;" horiz-adv-x="1224" />
<glyph unicode="&#xc3;" horiz-adv-x="1224" />
<glyph unicode="&#xc4;" horiz-adv-x="1224" />
<glyph unicode="&#xc5;" horiz-adv-x="1224" />
<glyph unicode="&#xc6;" horiz-adv-x="1638" d="M-49 0q193 354 385 704.5t387 706.5h723v-92h-557v-557h528v-90h-528v-582h586v-90h-693v410h-501q-53 -104 -107.5 -205t-107.5 -205h-115zM330 500h452v817h-14q-35 -72 -87 -170t-111.5 -208t-122 -223.5t-117.5 -215.5z" />
<glyph unicode="&#xc7;" horiz-adv-x="1247" d="M111 678q0 172 45 311t132 237.5t214 152t291 53.5q96 0 178 -14.5t149 -35.5l-14 -104q-72 29 -155 46t-177 17q-135 0 -237.5 -47t-173 -132t-106.5 -204.5t-36 -265.5q0 -154 39 -270.5t110.5 -194t173 -116.5t226.5 -39q98 0 189.5 22.5t158.5 57.5l15 -97 q-72 -29 -167.5 -52t-217.5 -23q-152 0 -270 49t-199.5 139t-124.5 220t-43 290zM610 -410q41 16 72 28.5t50.5 26t28.5 33t9 48.5q0 33 -18.5 52t-46.5 32q-6 0 -12.5 -1.5t-14.5 -1.5q-10 68 -25 136q16 4 30.5 6t29.5 6q8 -16 15 -29.5t15 -27.5q53 -23 89 -58t36 -96 q0 -49 -11 -77.5t-35.5 -48t-62.5 -34t-89 -35.5q-16 10 -29.5 20.5t-30.5 20.5z" />
<glyph unicode="&#xc8;" horiz-adv-x="1036" />
<glyph unicode="&#xc9;" horiz-adv-x="1036" />
<glyph unicode="&#xca;" horiz-adv-x="1036" />
<glyph unicode="&#xcb;" horiz-adv-x="1036" />
<glyph unicode="&#xcc;" horiz-adv-x="497" />
<glyph unicode="&#xcd;" horiz-adv-x="497" />
<glyph unicode="&#xce;" horiz-adv-x="497" />
<glyph unicode="&#xcf;" horiz-adv-x="497" />
<glyph unicode="&#xd0;" horiz-adv-x="1425" d="M27 670v88h194v653q23 0 73 1t107.5 1t109.5 1t81 1q342 0 531.5 -171t189.5 -523q0 -166 -54.5 -300t-154.5 -227.5t-242.5 -144.5t-316.5 -51h-76t-96 1t-91 1h-61v670h-194zM328 92q2 0 32.5 -1t67.5 -2t73 -1h48q145 0 266 37t207 113.5t134 195.5t48 283 q0 297 -155.5 452.5t-473.5 155.5h-54t-74.5 -1t-72.5 -1h-46v-565h358v-88h-358v-578z" />
<glyph unicode="&#xd1;" horiz-adv-x="1456" />
<glyph unicode="&#xd2;" horiz-adv-x="1492" />
<glyph unicode="&#xd3;" horiz-adv-x="1492" />
<glyph unicode="&#xd4;" horiz-adv-x="1492" />
<glyph unicode="&#xd5;" horiz-adv-x="1492" />
<glyph unicode="&#xd6;" horiz-adv-x="1492" />
<glyph unicode="&#xd7;" horiz-adv-x="1212" d="M188 252l357 348l-357 350l64 64l356 -352l355 352l61 -62l-356 -350l356 -350l-63 -62l-357 351l-354 -351z" />
<glyph unicode="&#xd8;" horiz-adv-x="1492" d="M104 694q0 168 48.5 304.5t135.5 232.5t207.5 149.5t268.5 53.5q78 0 146.5 -21.5t127.5 -62.5l103 180l78 -45l-105 -180q133 -86 204 -234.5t71 -349.5q0 -184 -50.5 -322.5t-138.5 -231.5t-209 -140t-260 -47q-92 0 -169 28.5t-136 79.5l-119 -209l-78 45l123 215 q-129 90 -188.5 234.5t-59.5 320.5zM217 707q0 -154 43 -278t141 -204l590 1041q-100 76 -241 75q-111 0 -208.5 -43t-169 -124.5t-113.5 -199.5t-42 -267zM473 172q113 -100 264 -100q117 0 216.5 41t171 120.5t111.5 197t40 271.5q0 176 -53.5 307.5t-157.5 209.5z" />
<glyph unicode="&#xd9;" horiz-adv-x="1392" />
<glyph unicode="&#xda;" horiz-adv-x="1392" />
<glyph unicode="&#xdb;" horiz-adv-x="1392" />
<glyph unicode="&#xdc;" horiz-adv-x="1392" />
<glyph unicode="&#xdd;" horiz-adv-x="1073" />
<glyph unicode="&#xde;" horiz-adv-x="1081" d="M197 20v1391l104 -20v-211q14 0 44 1t63.5 1h63.5h46q233 0 358 -103.5t125 -302.5q0 -96 -36.5 -179t-105 -144.5t-167 -96t-221.5 -34.5h-36.5h-50.5t-49.5 1t-33.5 1v-324zM301 416q10 0 34.5 -1t53.5 -2t54.5 -1h39.5q209 0 309.5 99t100.5 253q0 156 -94 242 t-307 86h-37t-57.5 -1t-57.5 -2.5t-39 -3.5v-669z" />
<glyph unicode="&#xdf;" horiz-adv-x="1132" d="M186 0v1081q0 115 31 198t85 136t128 79t160 26q80 0 142.5 -23.5t103.5 -63.5t62.5 -95.5t21.5 -118.5q0 -72 -24 -125.5t-61.5 -95.5t-85 -73.5t-92.5 -60.5q-29 -23 -28 -49q23 -35 61.5 -64.5t83.5 -60.5t92 -64.5t85 -73.5t61.5 -91.5t23.5 -114.5 q0 -78 -26.5 -144.5t-77.5 -115.5t-124 -77.5t-167 -28.5q-47 0 -91 5t-79 13q2 45 6 98q41 -16 86 -22t84 -6q135 0 207 61t72 160q0 70 -33 133t-88 116.5t-127 98.5t-150 82q-12 25 -19 51.5t-7 58.5q33 45 85 87t101 91.5t85 109t36 136.5q0 86 -62.5 133.5t-166.5 47.5 q-135 0 -213 -85t-78 -272v-1077h-103z" />
<glyph unicode="&#xe0;" horiz-adv-x="1040" d="M109 254q0 90 37.5 151.5t117.5 102.5t203 65.5t291 40.5q0 176 -52.5 258t-195.5 82q-84 0 -167 -30.5t-148 -79.5q-4 25 -8.5 51.5t-8.5 50.5q63 37 155.5 66.5t188.5 29.5q180 0 258 -93t78 -265v-385q0 -74 1 -150.5t3 -148.5h-104q0 55 1 110.5t5 104.5h-4 q-41 -104 -136.5 -169.5t-222.5 -65.5q-70 0 -124 22.5t-92 59t-57 87t-19 105.5zM215 266q0 -80 52 -140t153 -60q74 0 136 30.5t106.5 85t70 126t25.5 153.5v67q-160 -16 -264.5 -35.5t-166 -49t-87 -72.5t-25.5 -105zM322 1481l90 28l231 -297l-74 -24z" />
<glyph unicode="&#xe1;" horiz-adv-x="1040" d="M109 254q0 90 37.5 151.5t117.5 102.5t203 65.5t291 40.5q0 176 -52.5 258t-195.5 82q-84 0 -167 -30.5t-148 -79.5q-4 25 -8.5 51.5t-8.5 50.5q63 37 155.5 66.5t188.5 29.5q180 0 258 -93t78 -265v-385q0 -74 1 -150.5t3 -148.5h-104q0 55 1 110.5t5 104.5h-4 q-41 -104 -136.5 -169.5t-222.5 -65.5q-70 0 -124 22.5t-92 59t-57 87t-19 105.5zM215 266q0 -80 52 -140t153 -60q74 0 136 30.5t106.5 85t70 126t25.5 153.5v67q-160 -16 -264.5 -35.5t-166 -49t-87 -72.5t-25.5 -105zM414 1212l229 297l90 -28l-246 -293z" />
<glyph unicode="&#xe2;" horiz-adv-x="1040" d="M109 254q0 90 37.5 151.5t117.5 102.5t203 65.5t291 40.5q0 176 -52.5 258t-195.5 82q-84 0 -167 -30.5t-148 -79.5q-4 25 -8.5 51.5t-8.5 50.5q63 37 155.5 66.5t188.5 29.5q180 0 258 -93t78 -265v-385q0 -74 1 -150.5t3 -148.5h-104q0 55 1 110.5t5 104.5h-4 q-41 -104 -136.5 -169.5t-222.5 -65.5q-70 0 -124 22.5t-92 59t-57 87t-19 105.5zM215 266q0 -80 52 -140t153 -60q74 0 136 30.5t106.5 85t70 126t25.5 153.5v67q-160 -16 -264.5 -35.5t-166 -49t-87 -72.5t-25.5 -105zM266 1210q49 68 97.5 134.5t95.5 134.5 q16 10 34.5 17t34.5 17l240 -301q-18 -6 -35.5 -12t-36.5 -12q-47 53 -91 107.5t-89 107.5q-47 -53 -91 -107.5t-91 -107.5q-16 6 -33.5 11t-34.5 11z" />
<glyph unicode="&#xe3;" horiz-adv-x="1040" d="M109 254q0 90 37.5 151.5t117.5 102.5t203 65.5t291 40.5q0 176 -52.5 258t-195.5 82q-84 0 -167 -30.5t-148 -79.5q-4 25 -8.5 51.5t-8.5 50.5q63 37 155.5 66.5t188.5 29.5q180 0 258 -93t78 -265v-385q0 -74 1 -150.5t3 -148.5h-104q0 55 1 110.5t5 104.5h-4 q-41 -104 -136.5 -169.5t-222.5 -65.5q-70 0 -124 22.5t-92 59t-57 87t-19 105.5zM195 1241q20 86 69 135t119 49q45 0 82 -19.5t68.5 -43t61.5 -43t60 -19.5q35 0 67 32t50 93q16 -4 32 -10t32 -10q-20 -82 -68.5 -134t-120.5 -52q-45 0 -80 19t-65.5 44t-60 44.5 t-64.5 19.5q-84 0 -119 -125q-16 4 -31.5 10t-31.5 10zM215 266q0 -80 52 -140t153 -60q74 0 136 30.5t106.5 85t70 126t25.5 153.5v67q-160 -16 -264.5 -35.5t-166 -49t-87 -72.5t-25.5 -105z" />
<glyph unicode="&#xe4;" horiz-adv-x="1040" d="M109 254q0 90 37.5 151.5t117.5 102.5t203 65.5t291 40.5q0 176 -52.5 258t-195.5 82q-84 0 -167 -30.5t-148 -79.5q-4 25 -8.5 51.5t-8.5 50.5q63 37 155.5 66.5t188.5 29.5q180 0 258 -93t78 -265v-385q0 -74 1 -150.5t3 -148.5h-104q0 55 1 110.5t5 104.5h-4 q-41 -104 -136.5 -169.5t-222.5 -65.5q-70 0 -124 22.5t-92 59t-57 87t-19 105.5zM215 266q0 -80 52 -140t153 -60q74 0 136 30.5t106.5 85t70 126t25.5 153.5v67q-160 -16 -264.5 -35.5t-166 -49t-87 -72.5t-25.5 -105zM254 1296q0 35 24.5 54.5t53.5 19.5q31 0 53.5 -20.5 t22.5 -53.5h2q0 -33 -22.5 -54t-55.5 -21q-29 0 -53.5 20.5t-24.5 54.5zM610 1296q0 35 24.5 54.5t53.5 19.5q31 0 54.5 -20.5t23.5 -53.5t-22.5 -54t-55.5 -21q-29 0 -53.5 20.5t-24.5 54.5z" />
<glyph unicode="&#xe5;" horiz-adv-x="1040" d="M109 254q0 90 37.5 151.5t117.5 102.5t203 65.5t291 40.5q0 176 -52.5 258t-195.5 82q-84 0 -167 -30.5t-148 -79.5q-4 25 -8.5 51.5t-8.5 50.5q63 37 155.5 66.5t188.5 29.5q180 0 258 -93t78 -265v-385q0 -74 1 -150.5t3 -148.5h-104q0 55 1 110.5t5 104.5h-4 q-41 -104 -136.5 -169.5t-222.5 -65.5q-70 0 -124 22.5t-92 59t-57 87t-19 105.5zM215 266q0 -80 52 -140t153 -60q74 0 136 30.5t106.5 85t70 126t25.5 153.5v67q-160 -16 -264.5 -35.5t-166 -49t-87 -72.5t-25.5 -105zM322 1360q0 84 59 137t143 53q86 0 144.5 -53 t58.5 -137q0 -41 -15.5 -76t-43 -60.5t-64.5 -41t-80 -15.5q-86 0 -144 52.5t-58 140.5zM401 1360q0 -53 35 -86t88 -33t88 33t35 86t-34.5 86t-88.5 33q-53 0 -88 -34t-35 -85z" />
<glyph unicode="&#xe6;" horiz-adv-x="1687" d="M109 254q0 88 37.5 150.5t116.5 102.5t202 59.5t293 23.5q0 94 -11.5 163.5t-39 113.5t-74.5 65.5t-121 21.5q-90 0 -171 -30.5t-146 -79.5q-4 27 -8.5 52.5t-8.5 49.5q70 41 157 68.5t191 27.5q63 0 114.5 -18t90.5 -49t63.5 -72t36.5 -84h3q51 104 144 163.5t216 59.5 q106 0 180 -37.5t121 -101t68.5 -147.5t21.5 -174v-22.5t-2 -29.5h-725v-26q0 -217 94.5 -326.5t268.5 -109.5q86 0 162.5 25.5t144.5 72.5q4 -25 7 -49.5t7 -46.5q-68 -39 -152.5 -64.5t-189.5 -25.5q-166 0 -262 73.5t-135 190.5h-4q-23 -51 -58.5 -98.5t-85 -84t-113 -59 t-139.5 -22.5q-70 0 -124 21.5t-91.5 58t-58 87t-20.5 107.5zM215 266q0 -88 54.5 -144t152.5 -56q72 0 133 30.5t106.5 85t71 126t25.5 153.5v43q-63 -2 -121.5 -4t-112.5 -6q-92 -6 -152.5 -29t-95 -53.5t-48 -68.5t-13.5 -77zM866 616h609q0 162 -76 252t-209 90 q-68 0 -123 -25.5t-97 -70.5t-67.5 -108.5t-36.5 -137.5z" />
<glyph unicode="&#xe7;" horiz-adv-x="911" d="M94 485q0 127 35 229.5t98.5 175.5t153.5 111.5t203 38.5q76 0 141.5 -13t114.5 -34l-15 -98q-49 23 -115.5 42t-144.5 19q-86 0 -152.5 -34.5t-113.5 -95t-71.5 -144.5t-24.5 -182q0 -96 19.5 -175t62.5 -136.5t109.5 -89t160.5 -31.5q82 0 150.5 20.5t121.5 50.5 l15 -92q-55 -27 -133 -46t-168 -19t-171 29.5t-142.5 92t-97.5 157.5t-36 224zM401 -410q41 16 72 28.5t50.5 26t28.5 33t9 48.5q0 33 -18.5 52t-46.5 32q-6 0 -12.5 -1.5t-14.5 -1.5q-10 68 -25 136q16 4 30.5 6t29.5 6q8 -16 15.5 -29.5t15.5 -27.5q53 -23 88.5 -58 t35.5 -96q0 -49 -11 -77.5t-35.5 -48t-62.5 -34t-89 -35.5q-16 10 -29.5 20.5t-30.5 20.5z" />
<glyph unicode="&#xe8;" horiz-adv-x="1030" d="M94 512q0 109 31 205t87 168.5t139 114.5t188 42q104 0 179 -37.5t121 -101t67.5 -147.5t21.5 -174v-22.5t-2 -29.5h-723v-26q0 -219 93 -327.5t267 -108.5q86 0 164 25.5t145 72.5q4 -25 7.5 -49.5t7.5 -46.5q-68 -39 -154 -64.5t-190 -25.5q-100 0 -182 30.5t-141.5 95 t-92.5 165t-33 241.5zM209 616h610q-2 162 -77.5 252t-209.5 90q-68 0 -123 -25.5t-97 -70.5t-67.5 -108.5t-35.5 -137.5zM328 1481l90 28l231 -297l-74 -24z" />
<glyph unicode="&#xe9;" horiz-adv-x="1030" d="M94 512q0 109 31 205t87 168.5t139 114.5t188 42q104 0 179 -37.5t121 -101t67.5 -147.5t21.5 -174v-22.5t-2 -29.5h-723v-26q0 -219 93 -327.5t267 -108.5q86 0 164 25.5t145 72.5q4 -25 7.5 -49.5t7.5 -46.5q-68 -39 -154 -64.5t-190 -25.5q-100 0 -182 30.5t-141.5 95 t-92.5 165t-33 241.5zM209 616h610q-2 162 -77.5 252t-209.5 90q-68 0 -123 -25.5t-97 -70.5t-67.5 -108.5t-35.5 -137.5zM422 1212l229 297l90 -28l-245 -293z" />
<glyph unicode="&#xea;" horiz-adv-x="1030" d="M94 512q0 109 31 205t87 168.5t139 114.5t188 42q104 0 179 -37.5t121 -101t67.5 -147.5t21.5 -174v-22.5t-2 -29.5h-723v-26q0 -219 93 -327.5t267 -108.5q86 0 164 25.5t145 72.5q4 -25 7.5 -49.5t7.5 -46.5q-68 -39 -154 -64.5t-190 -25.5q-100 0 -182 30.5t-141.5 95 t-92.5 165t-33 241.5zM209 616h610q-2 162 -77.5 252t-209.5 90q-68 0 -123 -25.5t-97 -70.5t-67.5 -108.5t-35.5 -137.5zM274 1210q49 68 97.5 134.5t95.5 134.5q16 10 34.5 17t35.5 17l239 -301q-18 -6 -35.5 -12t-35.5 -12q-47 53 -91.5 107.5t-89.5 107.5 q-47 -53 -91 -107.5t-91 -107.5q-16 6 -33.5 11t-34.5 11z" />
<glyph unicode="&#xeb;" horiz-adv-x="1030" d="M94 512q0 109 31 205t87 168.5t139 114.5t188 42q104 0 179 -37.5t121 -101t67.5 -147.5t21.5 -174v-22.5t-2 -29.5h-723v-26q0 -219 93 -327.5t267 -108.5q86 0 164 25.5t145 72.5q4 -25 7.5 -49.5t7.5 -46.5q-68 -39 -154 -64.5t-190 -25.5q-100 0 -182 30.5t-141.5 95 t-92.5 165t-33 241.5zM209 616h610q-2 162 -77.5 252t-209.5 90q-68 0 -123 -25.5t-97 -70.5t-67.5 -108.5t-35.5 -137.5zM270 1296q0 35 24.5 54.5t53.5 19.5q31 0 53.5 -20.5t22.5 -53.5h2q0 -33 -22.5 -54t-55.5 -21q-29 0 -53.5 20.5t-24.5 54.5zM627 1296 q0 35 24.5 54.5t53.5 19.5q31 0 54 -20.5t23 -53.5t-22.5 -54t-54.5 -21q-29 0 -53.5 20.5t-24.5 54.5z" />
<glyph unicode="&#xec;" horiz-adv-x="477" d="M41 1481l90 28l231 -297l-73 -24zM188 0v1022h101v-1022h-101z" />
<glyph unicode="&#xed;" horiz-adv-x="477" d="M113 1212l229 297l90 -28l-246 -293zM188 0v1022h101v-1022h-101z" />
<glyph unicode="&#xee;" horiz-adv-x="477" d="M-12 1210q49 68 97 134.5t95 134.5q16 10 34.5 17t35.5 17l239 -301q-18 -6 -35.5 -12t-35.5 -12q-47 53 -91 107.5t-89 107.5q-47 -53 -91.5 -107.5t-91.5 -107.5q-16 6 -33.5 11t-33.5 11zM188 0v1022h101v-1022h-101z" />
<glyph unicode="&#xef;" horiz-adv-x="477" d="M-18 1296q0 35 24.5 54.5t52.5 19.5q31 0 53.5 -20.5t22.5 -53.5h2q0 -33 -22.5 -54t-55.5 -21q-29 0 -53 20.5t-24 54.5zM188 0v1022h101v-1022h-101zM338 1296q0 35 24.5 54.5t53.5 19.5q31 0 54.5 -20.5t23.5 -53.5t-22.5 -54t-55.5 -21q-29 0 -53.5 20.5t-24.5 54.5z " />
<glyph unicode="&#xf0;" horiz-adv-x="1122" d="M92 506q0 129 35 228.5t98.5 168t152.5 104t195 35.5q86 0 158 -30.5t107 -77.5l2 2q-47 90 -100.5 160.5t-129.5 150.5q-66 -35 -128 -65.5t-128 -63.5q-12 18 -24.5 37t-24.5 39q61 29 120.5 58.5t121.5 60.5q-45 41 -99.5 89t-109.5 89q35 4 66.5 10t64.5 10 q41 -29 85 -68.5t89 -84.5q68 33 133.5 65.5t132.5 65.5q25 -41 47 -76q-63 -31 -124.5 -61.5t-124.5 -61.5q154 -174 235.5 -372.5t81.5 -393.5q0 -123 -33 -223t-94 -172t-148 -110.5t-198 -38.5q-109 0 -195 37.5t-144 107.5t-89 167t-31 214zM197 508q0 -203 97 -324 t271 -121q160 0 257.5 118t97.5 339q0 213 -91.5 324.5t-263.5 111.5q-76 0 -143.5 -28.5t-117.5 -85t-78.5 -140.5t-28.5 -194z" />
<glyph unicode="&#xf1;" horiz-adv-x="1148" d="M188 0v1022h103v-43t-2 -64.5t-4 -63.5t-4 -40l4 -2q47 111 141 172t223 61q88 0 149.5 -28.5t100.5 -80.5t55.5 -123t16.5 -153v-657h-103v623q0 166 -53 249.5t-186 83.5q-76 0 -138.5 -31.5t-107.5 -87t-69.5 -130t-24.5 -162.5v-545h-101zM272 1241q20 86 69.5 135 t119.5 49q45 0 82 -19.5t68.5 -43t61 -43t60.5 -19.5q35 0 66.5 32t50.5 93q16 -4 31.5 -10t31.5 -10q-20 -82 -68 -134t-120 -52q-45 0 -80 19t-65.5 44t-60.5 44.5t-64 19.5q-84 0 -119 -125q-16 4 -31.5 10t-32.5 10z" />
<glyph unicode="&#xf2;" horiz-adv-x="1122" d="M92 506q0 129 36 228.5t99.5 168t151.5 104t194 35.5q94 0 177.5 -31.5t144.5 -96t96 -164t35 -234.5q0 -109 -30.5 -206t-90 -170.5t-149.5 -116.5t-207 -43q-109 0 -194 37.5t-143 107.5t-89 167t-31 214zM199 510q0 -203 95 -323.5t269 -120.5q80 0 145.5 29.5 t113.5 87t74 141.5t26 190q0 217 -93.5 329.5t-265.5 112.5q-76 0 -142.5 -28.5t-115.5 -85t-77.5 -139t-28.5 -193.5zM371 1481l90 28l231 -297l-74 -24z" />
<glyph unicode="&#xf3;" horiz-adv-x="1122" d="M92 506q0 129 36 228.5t99.5 168t151.5 104t194 35.5q94 0 177.5 -31.5t144.5 -96t96 -164t35 -234.5q0 -109 -30.5 -206t-90 -170.5t-149.5 -116.5t-207 -43q-109 0 -194 37.5t-143 107.5t-89 167t-31 214zM199 510q0 -203 95 -323.5t269 -120.5q80 0 145.5 29.5 t113.5 87t74 141.5t26 190q0 217 -93.5 329.5t-265.5 112.5q-76 0 -142.5 -28.5t-115.5 -85t-77.5 -139t-28.5 -193.5zM455 1212l229 297l90 -28l-246 -293z" />
<glyph unicode="&#xf4;" horiz-adv-x="1122" d="M92 506q0 129 36 228.5t99.5 168t151.5 104t194 35.5q94 0 177.5 -31.5t144.5 -96t96 -164t35 -234.5q0 -109 -30.5 -206t-90 -170.5t-149.5 -116.5t-207 -43q-109 0 -194 37.5t-143 107.5t-89 167t-31 214zM199 510q0 -203 95 -323.5t269 -120.5q80 0 145.5 29.5 t113.5 87t74 141.5t26 190q0 217 -93.5 329.5t-265.5 112.5q-76 0 -142.5 -28.5t-115.5 -85t-77.5 -139t-28.5 -193.5zM307 1210q49 68 97.5 134.5t95.5 134.5q16 10 34.5 17t34.5 17l240 -301q-18 -6 -35.5 -12t-36.5 -12q-47 53 -91 107.5t-89 107.5q-47 -53 -91 -107.5 t-91 -107.5q-16 6 -33.5 11t-34.5 11z" />
<glyph unicode="&#xf5;" horiz-adv-x="1122" d="M92 506q0 129 36 228.5t99.5 168t151.5 104t194 35.5q94 0 177.5 -31.5t144.5 -96t96 -164t35 -234.5q0 -109 -30.5 -206t-90 -170.5t-149.5 -116.5t-207 -43q-109 0 -194 37.5t-143 107.5t-89 167t-31 214zM199 510q0 -203 95 -323.5t269 -120.5q80 0 145.5 29.5 t113.5 87t74 141.5t26 190q0 217 -93.5 329.5t-265.5 112.5q-76 0 -142.5 -28.5t-115.5 -85t-77.5 -139t-28.5 -193.5zM252 1241q20 86 69.5 135t118.5 49q45 0 82 -19.5t69 -43t61.5 -43t60.5 -19.5q35 0 66.5 32t49.5 93q16 -4 32 -10t32 -10q-20 -82 -68.5 -134 t-119.5 -52q-45 0 -80 19t-66 44t-60.5 44.5t-64.5 19.5q-84 0 -119 -125q-16 4 -31.5 10t-31.5 10z" />
<glyph unicode="&#xf6;" horiz-adv-x="1122" d="M92 506q0 129 36 228.5t99.5 168t151.5 104t194 35.5q94 0 177.5 -31.5t144.5 -96t96 -164t35 -234.5q0 -109 -30.5 -206t-90 -170.5t-149.5 -116.5t-207 -43q-109 0 -194 37.5t-143 107.5t-89 167t-31 214zM199 510q0 -203 95 -323.5t269 -120.5q80 0 145.5 29.5 t113.5 87t74 141.5t26 190q0 217 -93.5 329.5t-265.5 112.5q-76 0 -142.5 -28.5t-115.5 -85t-77.5 -139t-28.5 -193.5zM299 1296q0 35 24.5 54.5t53.5 19.5q31 0 53.5 -20.5t22.5 -53.5h2q0 -33 -22.5 -54t-55.5 -21q-29 0 -53.5 20.5t-24.5 54.5zM655 1296q0 35 25 54.5 t53 19.5q31 0 54.5 -20.5t23.5 -53.5t-22.5 -54t-55.5 -21q-29 0 -53.5 20.5t-24.5 54.5z" />
<glyph unicode="&#xf7;" horiz-adv-x="1212" d="M141 559v86h930v-86h-930zM520 227q0 35 24.5 58.5t59.5 23.5t59.5 -23.5t24.5 -58.5t-24.5 -58.5t-59.5 -23.5t-59.5 24t-24.5 58zM520 977q0 35 24.5 57.5t59.5 22.5t59.5 -22.5t24.5 -57.5t-24.5 -59.5t-59.5 -24.5t-59.5 24.5t-24.5 59.5z" />
<glyph unicode="&#xf8;" horiz-adv-x="1122" d="M92 506q0 129 35 228.5t98.5 168t152.5 104t195 35.5q113 0 197 -71q29 47 57.5 95t57.5 95q18 -10 37.5 -21.5t40.5 -23.5q-31 -47 -61 -96t-58 -98q80 -59 131 -158.5t51 -249.5q0 -109 -30.5 -206t-91 -169.5t-148.5 -115.5t-205 -43q-131 0 -223 73 q-29 -47 -58.5 -97t-58.5 -99q-35 23 -76 47q31 51 60.5 100t60.5 100q-88 70 -126 175.5t-38 226.5zM197 508q0 -98 29.5 -182t78.5 -140q104 178 210 354.5t210 354.5q-76 59 -174 59q-74 0 -138.5 -26.5t-112.5 -81.5t-75.5 -139t-27.5 -199zM375 129q78 -66 188 -66 q80 0 145.5 31t113.5 88.5t74 141.5t26 190q0 227 -125 328q-106 -180 -212 -356.5t-210 -356.5z" />
<glyph unicode="&#xf9;" horiz-adv-x="1150" d="M178 381v641h103v-608q0 -170 53 -259t192 -89q76 0 137.5 30.5t105.5 85t67.5 131t23.5 168.5v541h103v-1022h-105q0 12 1 43t2 64.5t3 63.5t4 40l-4 2q-47 -115 -139 -174t-215 -59q-92 0 -155.5 28.5t-102.5 80.5t-56.5 127t-17.5 165zM375 1481l90 28l231 -297 l-73 -24z" />
<glyph unicode="&#xfa;" horiz-adv-x="1150" d="M178 381v641h103v-608q0 -170 53 -259t192 -89q76 0 137.5 30.5t105.5 85t67.5 131t23.5 168.5v541h103v-1022h-105q0 12 1 43t2 64.5t3 63.5t4 40l-4 2q-47 -115 -139 -174t-215 -59q-92 0 -155.5 28.5t-102.5 80.5t-56.5 127t-17.5 165zM465 1212l229 297l90 -28 l-245 -293z" />
<glyph unicode="&#xfb;" horiz-adv-x="1150" d="M178 381v641h103v-608q0 -170 53 -259t192 -89q76 0 137.5 30.5t105.5 85t67.5 131t23.5 168.5v541h103v-1022h-105q0 12 1 43t2 64.5t3 63.5t4 40l-4 2q-47 -115 -139 -174t-215 -59q-92 0 -155.5 28.5t-102.5 80.5t-56.5 127t-17.5 165zM317 1210q49 68 97.5 134.5 t95.5 134.5q16 10 34.5 17t35.5 17l239 -301q-18 -6 -35.5 -12t-35.5 -12q-47 53 -91.5 107.5t-89.5 107.5q-47 -53 -91 -107.5t-91 -107.5q-16 6 -33.5 11t-34.5 11z" />
<glyph unicode="&#xfc;" horiz-adv-x="1150" d="M178 381v641h103v-608q0 -170 53 -259t192 -89q76 0 137.5 30.5t105.5 85t67.5 131t23.5 168.5v541h103v-1022h-105q0 12 1 43t2 64.5t3 63.5t4 40l-4 2q-47 -115 -139 -174t-215 -59q-92 0 -155.5 28.5t-102.5 80.5t-56.5 127t-17.5 165zM311 1296q0 35 24.5 54.5 t53.5 19.5q31 0 53.5 -20.5t22.5 -53.5h2q0 -33 -22.5 -54t-55.5 -21q-29 0 -53.5 20.5t-24.5 54.5zM668 1296q0 35 24.5 54.5t52.5 19.5q31 0 54.5 -20.5t23.5 -53.5t-22.5 -54t-55.5 -21q-29 0 -53 20.5t-24 54.5z" />
<glyph unicode="&#xfd;" horiz-adv-x="933" d="M-23 -489l9 96q18 -6 46.5 -10.5t53.5 -4.5q80 0 141.5 49.5t118.5 176.5l70 186l-391 1018h116l273 -762q18 -45 30.5 -76.5t22.5 -62.5h4q10 25 28.5 71t41.5 97l260 733h110l-456 -1190q-39 -96 -80 -160.5t-87 -103.5t-100.5 -55.5t-119.5 -16.5q-23 0 -48.5 5 t-42.5 10zM377 1212l229 297l90 -28l-245 -293z" />
<glyph unicode="&#xfe;" horiz-adv-x="1144" d="M186 -487v1992h103v-444q0 -68 -2 -138.5t-6 -125.5q2 0 2 -1t2 -1q45 111 142 179t226 68q188 0 291 -128.5t103 -364.5q0 -127 -32 -230.5t-90.5 -177t-140.5 -113.5t-184 -40q-109 0 -179.5 35.5t-129.5 82.5l-2 -593h-103zM289 295q18 -43 45.5 -84t65.5 -71.5 t88.5 -50t113.5 -19.5q156 0 247 126t91 349q0 195 -77 303t-222 108q-96 0 -162.5 -43t-108.5 -106.5t-61.5 -137t-19.5 -137.5v-237z" />
<glyph unicode="&#xff;" horiz-adv-x="933" d="M-23 -489l9 96q18 -6 46.5 -10.5t53.5 -4.5q80 0 141.5 49.5t118.5 176.5l70 186l-391 1018h116l273 -762q18 -45 30.5 -76.5t22.5 -62.5h4q10 25 28.5 71t41.5 97l260 733h110l-456 -1190q-39 -96 -80 -160.5t-87 -103.5t-100.5 -55.5t-119.5 -16.5q-23 0 -48.5 5 t-42.5 10zM209 1296q0 35 24.5 54.5t53.5 19.5q31 0 53 -20.5t22 -53.5h3q0 -33 -23 -54t-55 -21q-29 0 -53.5 20.5t-24.5 54.5zM565 1296q0 35 24.5 54.5t53.5 19.5q31 0 54.5 -20.5t23.5 -53.5t-22.5 -54t-55.5 -21q-29 0 -53.5 20.5t-24.5 54.5z" />
<glyph unicode="&#x152;" horiz-adv-x="1841" d="M104 692q0 168 48.5 305.5t136.5 233.5t211 149.5t270 53.5q70 0 124 -6.5t103 -16.5h668v-88h-565v-559h532v-90h-532v-584h579v-90h-686q-59 -10 -119.5 -15t-130.5 -5q-166 0 -286.5 57t-199.5 155.5t-116 227.5t-37 272zM217 709q0 -131 32 -247t97.5 -203 t165.5 -137t240 -50q68 0 125 6t116 20v1217q-55 12 -107 19t-126 7q-121 0 -220.5 -46t-171 -130t-111.5 -200.5t-40 -255.5z" />
<glyph unicode="&#x153;" horiz-adv-x="1843" d="M92 506q0 125 34 224t97.5 169t152.5 106.5t197 36.5q135 0 243 -68.5t159 -201.5h2q51 119 145.5 194.5t239.5 75.5q104 0 178 -37.5t120 -101t67.5 -147.5t21.5 -174v-52h-725v-26q0 -219 94 -327.5t268 -108.5q86 0 163 25.5t145 72.5q4 -25 7 -49.5t7 -46.5 q-68 -39 -153 -64.5t-189 -25.5q-158 0 -256 70.5t-145 203.5h-2q-25 -57 -62 -107.5t-88 -87t-116.5 -58t-147.5 -21.5q-111 0 -196 38.5t-143 108.5t-88 167t-30 212zM197 508q0 -203 96 -324t270 -121q80 0 145.5 31t112.5 88.5t73 141.5t26 190q0 217 -92.5 329.5 t-264.5 112.5q-76 0 -142.5 -28.5t-116.5 -85t-78.5 -140.5t-28.5 -194zM1030 616h610q-2 162 -77.5 252t-208.5 90q-68 0 -123 -25.5t-97 -70.5t-68 -108.5t-36 -137.5z" />
<glyph unicode="&#x178;" horiz-adv-x="1073" />
<glyph unicode="&#x2c6;" horiz-adv-x="843" d="M162 1210q49 68 97 134.5t95 134.5q16 10 35 17t35 17l240 -301l-36 -12l-36 -12q-47 53 -91 107.5t-89 107.5q-47 -53 -91.5 -107.5t-91.5 -107.5q-16 6 -33.5 11t-33.5 11z" />
<glyph unicode="&#x2dc;" horiz-adv-x="894" d="M131 1241q20 86 69.5 135t118.5 49q45 0 82 -19.5t69 -43t61.5 -43t60.5 -19.5q35 0 66.5 32t50.5 93q16 -4 31.5 -10t31.5 -10q-20 -82 -68.5 -134t-119.5 -52q-45 0 -80 19t-65.5 44t-60.5 44.5t-65 19.5q-84 0 -118 -125q-16 4 -32 10t-32 10z" />
<glyph unicode="&#x2000;" horiz-adv-x="807" />
<glyph unicode="&#x2001;" horiz-adv-x="1614" />
<glyph unicode="&#x2002;" horiz-adv-x="807" />
<glyph unicode="&#x2003;" horiz-adv-x="1614" />
<glyph unicode="&#x2004;" horiz-adv-x="538" />
<glyph unicode="&#x2005;" horiz-adv-x="403" />
<glyph unicode="&#x2006;" horiz-adv-x="269" />
<glyph unicode="&#x2007;" horiz-adv-x="269" />
<glyph unicode="&#x2008;" horiz-adv-x="201" />
<glyph unicode="&#x2009;" horiz-adv-x="322" />
<glyph unicode="&#x200a;" horiz-adv-x="89" />
<glyph unicode="&#x2010;" horiz-adv-x="729" d="M121 557v92h497v-92h-497z" />
<glyph unicode="&#x2011;" horiz-adv-x="729" d="M121 557v92h497v-92h-497z" />
<glyph unicode="&#x2012;" horiz-adv-x="729" d="M121 557v92h497v-92h-497z" />
<glyph unicode="&#x2013;" horiz-adv-x="1083" d="M35 559v90h1014v-90h-1014z" />
<glyph unicode="&#x2014;" horiz-adv-x="2048" d="M182 559v90h1684v-90h-1684z" />
<glyph unicode="&#x2018;" horiz-adv-x="395" d="M119 1143q0 66 30.5 149.5t114.5 177.5l62 -18q-66 -109 -85.5 -203t-19.5 -174v-6q0 -16 -22.5 -29.5t-55.5 -13.5q-10 23 -17 52.5t-7 64.5z" />
<glyph unicode="&#x2019;" horiz-adv-x="395" d="M66 1040q59 92 78.5 174t19.5 148q0 14 -3 25.5t-3 23.5q0 29 26.5 42t63.5 13q10 -23 17 -52.5t7 -63.5q0 -66 -31.5 -150t-115.5 -178q-14 4 -29.5 9t-29.5 9z" />
<glyph unicode="&#x201a;" horiz-adv-x="395" d="M66 -227q59 92 78.5 172t19.5 145q0 14 -7 25.5t-7 23.5q0 35 33.5 48.5t72.5 7.5q12 -29 15 -55.5t3 -61.5q0 -66 -32.5 -149t-116.5 -175q-14 4 -29.5 9.5t-29.5 9.5z" />
<glyph unicode="&#x201c;" horiz-adv-x="692" d="M119 1143q0 66 30.5 149.5t114.5 177.5l62 -18q-66 -109 -85.5 -203t-19.5 -174v-6q0 -16 -22.5 -29.5t-55.5 -13.5q-10 23 -17 52.5t-7 64.5zM416 1143q0 66 30.5 149.5t114.5 177.5l62 -18q-66 -109 -86.5 -203t-20.5 -174v-6q0 -16 -21.5 -29.5t-54.5 -13.5 q-10 23 -17 52.5t-7 64.5z" />
<glyph unicode="&#x201d;" horiz-adv-x="692" d="M66 1040q59 92 78.5 174t19.5 148q0 14 -3 25.5t-3 23.5q0 29 26.5 42t63.5 13q10 -23 17 -52.5t7 -63.5q0 -66 -31.5 -150t-115.5 -178q-14 4 -29.5 9t-29.5 9zM360 1040q59 86 78 163t19 143q0 12 -1 25t-1 26q0 39 21.5 54t68.5 15q10 -23 17 -52.5t7 -63.5 q0 -66 -31.5 -150t-115.5 -178q-14 4 -29.5 9t-32.5 9z" />
<glyph unicode="&#x201e;" horiz-adv-x="692" d="M66 -229q59 92 78.5 173t19.5 146q0 14 -3 25.5t-3 23.5q0 29 25.5 42.5t64.5 13.5q10 -23 17 -52.5t7 -64.5q0 -66 -31.5 -150t-115.5 -178q-14 4 -29.5 10.5t-29.5 10.5zM360 -229q59 86 78 161.5t19 141.5q0 12 -1 25.5t-1 25.5q0 70 90 70q10 -23 17 -52.5t7 -64.5 q0 -66 -31.5 -150t-115.5 -178q-14 4 -29.5 10.5t-32.5 10.5z" />
<glyph unicode="&#x2022;" horiz-adv-x="768" d="M166 670q0 45 16.5 85t46 69.5t68.5 47t82 17.5q45 0 84 -17.5t67.5 -47t45 -69.5t16.5 -85t-16.5 -85t-45 -70t-67.5 -47t-84 -17q-43 0 -82 17t-68.5 47t-46 70t-16.5 85z" />
<glyph unicode="&#x2026;" horiz-adv-x="1294" d="M127 70q0 35 24.5 58.5t59.5 23.5q37 0 61.5 -23.5t24.5 -58.5t-24.5 -60.5t-61.5 -25.5q-35 0 -59.5 25.5t-24.5 60.5zM553 70q0 35 24.5 58.5t59.5 23.5t60.5 -23.5t25.5 -58.5t-25.5 -60.5t-60.5 -25.5t-59.5 25.5t-24.5 60.5zM981 70q0 35 24.5 58.5t59.5 23.5 t60.5 -23.5t25.5 -58.5t-25.5 -60.5t-60.5 -25.5t-59.5 25.5t-24.5 60.5z" />
<glyph unicode="&#x202f;" horiz-adv-x="322" />
<glyph unicode="&#x2039;" horiz-adv-x="638" d="M129 563l266 344l88 -22l-241 -320l241 -313l-90 -25z" />
<glyph unicode="&#x203a;" horiz-adv-x="638" d="M156 250l243 321l-241 314l92 22l260 -336l-264 -344z" />
<glyph unicode="&#x205f;" horiz-adv-x="403" />
<glyph unicode="&#x20ac;" horiz-adv-x="1126" d="M23 473v94h184q-2 16 -2 35v39q0 35 1 67.5t3 65.5h-186v94h198q16 106 56 194.5t104.5 152t155 98.5t208.5 35q72 0 148 -15.5t129 -38.5l-35 -106q-53 23 -123.5 39t-146.5 16q-84 0 -146.5 -29.5t-105.5 -81t-69.5 -120t-39.5 -144.5h424v-94h-438q-2 -29 -3 -56.5 t-1 -58.5q0 -23 1 -46t1 -46h440v-94h-430q25 -188 117 -282.5t276 -94.5q61 0 134 17.5t135 42.5l32 -103q-80 -35 -168 -52t-163 -17q-227 0 -349 119.5t-151 369.5h-190z" />
<glyph unicode="&#x2122;" horiz-adv-x="1507" d="M98 1337v74h467v-74h-188v-551h-90v551h-189zM637 786q14 158 26.5 312.5t24.5 312.5h125q43 -131 88 -259t86 -259q43 131 89 259t93 259h121q12 -158 23.5 -312.5t25.5 -312.5h-88q-14 129 -22 254t-19 254h-2q-41 -127 -87 -254t-93 -254h-92q-43 127 -89 253t-83 255 h-2q-10 -129 -19.5 -255t-19.5 -253h-86z" />
<glyph unicode="&#x25fc;" horiz-adv-x="1024" d="M0 0v1024h1024v-1024h-1024z" />
<glyph unicode="&#xfb01;" horiz-adv-x="1107" />
<glyph unicode="&#xfb02;" horiz-adv-x="1107" />
</font>
</defs>
</svg>
